click

Sondaggi
Cosa ne pensi del nuovo Server del ilCorSaRoBlu.org












Dettagli Torrent
Youth
YouthYouthYouthYouth

Youth
Nome Youth - la giovinezza (2015).ita.eng.sub.ita.eng-MIRCRew.torrent
Torrent Youth - la giovinezza (2015).ita.eng.sub.ita.eng-MIRCRew.torrent
Info Hash e1f11754fc2a87f6ea852c5cf2426f2109909755
Who thanked
Streaming Thor Player (Web)
(Alpha Version)
Rango Premium o V.I.P.
Richiesto,
per questa funzione!

Diventa Premium,
V.I.P. subito!
Donate

Play With Thor Player
Image
Descrizione



Youth - la giovinezza (2015).DVDrip.XviD - Italian English.Ac3.5.1.Sub.ita.eng.MIRCrew


NO FOUND ONLY ORIGINAL RELEASE

Youth - la giovinezza

(2015)

 
Titolo originale    Youth
Lingua originale    Inglese
Paese di produzione    Italia, Francia, Svizzera, Regno Unito
Anno    2015
Durata    118 min
Genere    drammatico
Regia    Paolo Sorrentino
Sceneggiatura    Paolo Sorrentino
Produttore    Nicola Giuliano, Francesca Cima, Carlotta Calori
Casa di produzione    Indigo Film, Bis Films, Pathé, RSI[1] C-Films, Number 9 Films, Medusa Film, Barbary Films, France 2 Cinéma, Film4
Distribuzione (Italia)    Medusa Film
Fotografia    Luca Bigazzi
Montaggio    Cristiano Travaglioli
Musiche    ;David Lang
Scenografia    Ludovica Ferrario
Costumi    Carlo Poggioli
Trucco    Maurizio Silva

Michael Caine: Fred Ballinger
Harvey Keitel: Mick Boyle
Rachel Weisz: Lena Ballinger
Paul Dano: Jimmy Tree
Jane Fonda: Brenda Morel
Mark Kozelek: se stesso
Robert Seethaler: Luca Moroder
Alex MacQueen: emissario della regina
Luna Zimic Mijovic: massaggiatrice
Tom Lipinski: sceneggiatore innamorato
Chloe Pirrie: sceneggiatrice
Alex Beckett: sceneggiatore intellettuale
Nate Dern: sceneggiatore divertente
Mark Gessner: sceneggiatore timido
Paloma Faith: se stessa
ecc.....................
 


Fred Ballinger, anziano direttore d'orchestra, risiede in vacanza sulle Alpi svizzere con la figlia Lena e l'amico Mick Boyle, vecchio regista ancora in attività. I due amici si trovano a pensare insieme al futuro, osservando con curiosità le vite dei propri figli e degli ospiti dell'albergo in cui risiedono. Mick trova delle difficoltà nel portare a termine il suo ultimo film, mentre Fred si è ritirato dalle scene ormai da molti anni; ma c'è ancora qualcuno che vuole ascoltare le sue sinfonie. Infatti da Londra arriva un emissario della regina Elizabeth II, che lo invita a dirigere un concerto a Buckingham Palace in occasione del compleanno del principe Philip.....
A retired orchestra conductor is on holiday with his daughter and his film director best friend in the Alps when he receives an invitation from Queen Elizabeth II to perform for Prince Philip's birthday.................


FILMOGRAFIE

Rachel  Weisz
Spoiler (hover to show)
General
Complete name                            : Youth - la giovinezza (2015).ita.eng.sub.ita.eng-MIRCRew.avi
Format                                   : AVI
Format/Info                              : Audio Video Interleave
Format profile                           : OpenDML
File size                                : 2.08 GiB
Duration                                 : 2h 3mn
Overall bit rate                         : 2 416 Kbps
Movie name                               : ENCODED for ilcorsaroverde.org
Writing application                      : VirtualDubMod 1.5.10.2 (build 2540/release)
Writing library                          : VirtualDubMod build 2540/release

Video
ID                                       : 0
Format                                   : MPEG-4 Visual
Format profile                           : Simple@L3
Format settings, BVOP                    : No
Format settings, QPel                    : No
Format settings, GMC                     : No warppoints
Format settings, Matrix                  : Default (H.263)
Codec ID                                 : XVID
Codec ID/Hint                            : XviD
Duration                                 : 2h 3mn
Bit rate                                 : 1 502 Kbps
Width                                    : 716 pixels
Height                                   : 300 pixels
Display aspect ratio                     : 2.40:1
Frame rate                               : 23.976 fps
Color space                              : YUV
Chroma subsampling                       : 4:2:0
Bit depth                                : 8 bits
Scan type                                : Progressive
Compression mode                         : Lossy
Bits/(Pixel*Frame)                       : 0.292
Stream size                              : 1.30 GiB (62%)
Writing library                          : XviD 64

Audio #1
ID                                       : 1
Format                                   : AC-3
Format/Info                              : Audio Coding 3
Mode extension                           : CM (complete main)
Codec ID                                 : 2000
Duration                                 : 2h 3mn
Bit rate mode                            : Constant
Bit rate                                 : 448 Kbps
Channel(s)                               : 6 channels
Channel positions                        : Front: L C R, Side: L R, LFE
Sampling rate                            : 48.0 KHz
Bit depth                                : 16 bits
Compression mode                         : Lossy
Stream size                              : 396 MiB (19%)
Alignment                                : Split accross interleaves
Interleave, duration                     : 42 ms (1.00 video frame)
Interleave, preload duration             : 500 ms

Audio #2
ID                                       : 2
Format                                   : AC-3
Format/Info                              : Audio Coding 3
Mode extension                           : CM (complete main)
Codec ID                                 : 2000
Duration                                 : 2h 3mn
Bit rate mode                            : Constant
Bit rate                                 : 448 Kbps
Channel(s)                               : 6 channels
Channel positions                        : Front: L C R, Side: L R, LFE
Sampling rate                            : 48.0 KHz
Bit depth                                : 16 bits
Compression mode                         : Lossy
Stream size                              : 396 MiB (19%)
Alignment                                : Split accross interleaves
Interleave, duration                     : 42 ms (1.00 video frame)
Interleave, preload duration             : 500 ms

Youth - la giovinezza (2015).DVDrip.XviD - Italian English.Ac3.5.1.Sub.ita.eng.MIRCrew

« Ultima modifica: 07 Giugno 2018, 09:59:28 da NATODINUOVO »

Connesso
 

Screenshots         
Categoria Other
Dimensione 2.09 GB
Data 05/10/2020
Uploader Inviato come anonimo
Nodi
Distributori: 9, Ricettori: 10 = 19 Nodi, Down = 0 volte
Report Torrent
Similar torrents
Name Added Size Seeders Leechers
Holly & Benji - Holland Youth - OAV 10 07/03/2008 378.41 MB 196 20
Sonic Youth - Daydream Nation 01/08/2007 162.21 MB 173 74
Youth Without Youth - Unaltra giovinezza 24/02/2011 4.86 GB 156 51
Capitan Tsubasa World Youth - Serie Completa 22/01/2014 669.30 MB 154 85
Youth - La Giovinezza (2015) 23/05/2016 8.45 GB 140 47
Capitan Tsubasa World Youth - FIX Volume 15 23/01/2014 36.77 MB 62 54
East India Youth - Total Strife Forever (2014) 20/03/2020 331.15 MB 38 88
Sonic Youth - Evol.torrent 25/05/2018 217.00 MB 17 3
Sonic Youth - Evol.torrent 06/04/2020 88.52 MB 13 7
[Flac] Sonic Youth - Bad Moon Rising (1985).torrent 04/04/2018 258.78 MB 8 9
Aggiorna
Ultimo aggiornamento 28/10/2020 03:02:16 (28/10/2020 03:02:16)


Utente
Commento:
smile1.gif wink.gif grin.gif tongue.gif sad.gif cry.gif noexpression.gif confused.gif ohmy.gif cool1.gif angel.gif sleep.gif angry.gif smile2.gif laugh.gif cool2.gif
Altre Emoticon
   



Supportaci
Supporta lo sviluppo e manutenzione del portale ~ Support portal development and maintenance ~ ilCorSaRoBlu.org Say Thank You!
 
Donazioni questo mese: 51%

Obbiettivo: €100
Fino a: 31/10/20
Ultimi Donatori
Donatore: Data:
V.I.P.bisca9311💗26/10/2020
V.I.P.marsr28💗18/10/2020
V.I.P.leon27461💗15/10/2020
V.I.P.Pepi89💗13/10/2020
V.I.P.Angelo99💗11/10/2020

click

I nostri partner
            

Site Disclaimer

www.ilCorSaRoBlu.org - Site Disclaimer

Coloro che hanno realizzato il sito (www.ilCorSaRoBlu.org) si dissociano dalle eventuali violazioni della legge n.633 del 22 aprile 1941 e successive modifiche sul diritto d' autore, specie nell'art. 172. Il materiale pubblicato è di proprietà dei rispettivi autori, i quali, tacitamente o non, hanno dato il consenso ai realizzatori per la pubblicazione sul sito. Di conseguenza, tutto il materiale pubblicato, per il fatto stesso che dev'essere utilizzato per soli scopi di studio e valutazione, non può essere definito illegale ma di libero utilizzo, quindi non viola gli art.615, 615 quater e 623 del Codice Penale; anche i Provider e gli ISP che ospitano tale materiale sono da ritenersi liberi da qualsiasi procedimento giudiziario. Poiché alcuni contenuti e informazioni all'interno della rete Web possono in vario modo violare le leggi vigenti, i realizzatori del sito avvertono l'utente che il download di alcuni file può costituire violazione di diritti d'autore e copyright. Gli autori non si assumono alcuna responsabilità a riguardo ed avvertono l'utente che l'uso che egli fa di tutto ciò che é contenuto su questo sito ricade sotto la sua completa ed esclusiva responsabilità. Scaricando uno qualunque dei files presenti sul sito l'utente concorda in un periodo di valutazione di 24 ore e prima che questo scada dovrà cancellare il file ovunque l'avrà copiato. Queste pagine non sono a scopo di lucro e i files possono essere scaricati solo per la valutazione e lo studio degli stessi.
Entrando in questo sito tutte le avvertenze riportate nel presente testo si ritengono condivise ed accettate in ogni punto, senza alcuna remora.
Chiunque non concordi con quanto suscritto è pregato di chiudere il portale ora e non visualizzare le pagine del presente sito.
Questo server non ospita nessun file ma solo i relativi torrent / metadati.

Per maggiori informazioni si prega di consultare Condizioni Generali di Uso del Sito e il relativo Removal.
Per ogni Domanda/Dubbio/Curiosità/Info si prega di contattare Il Supporto.
Buona Permanenza sul Portale www.ilCorSaRoBlu.org


Premium Membership