click

Sondaggi
Cosa ne pensi del nuovo Server del ilCorSaRoBlu.org












Dettagli Torrent
Woman
WomanWomanWomanWoman

Woman
Nome Woman In Gold (2015).ita.eng.sub.ita-MIRCrew-ICV.torrent
Torrent Woman In Gold (2015).ita.eng.sub.ita-MIRCrew-ICV.torrent
Info Hash c14816c4f173f470cd6fbd8da1c0e791d9586265
Who thanked
Streaming Thor Player (Web)
(Alpha Version)
Rango Premium o V.I.P.
Richiesto,
per questa funzione!

Diventa Premium,
V.I.P. subito!
Donate

Play With Thor Player
Image
Descrizione



Woman In Gold (2015).BRrip.XviD - Italian English.Ac3.5.1.Sub.ita.MIRCrew - ICV

NO FOUND ONLY ORIGINAL RELEASE

My release is always in double track audio italian and Original audio
for select it use VLC or dvd player home
not use wmp

Woman In Gold

(2015)

   ;DATA USCITA: 15 ottobre 2015
   GENERE: Drammatico
   ANNO: 2015
   REGIA: Simon Curtis
   SCENEGGIATURA: Alexi Kaye Campbell
   FOTOGRAFIA: Ross Emery
   MONTAGGIO: Peter Lambert
   MUSICHE: Hans Zimmer
   PRODUZIONE: Origin Pictures, BBC Films
   ;DISTRIBUZIONE: Eagle Pictures
   PAESE: USA, Gran Bretagna
   ;DURATA: 109 Min


Helen Mirren, Ryan Reynolds, Katie Holmes, Tatiana Maslany, Daniel Bruehl, Max Irons, Charles Dance, Antje Traue, Elizabeth McGovern, Frances Fisher, Moritz Bleibtreu, Tom Schilling
 


Maria Altmann, è una donna ebrea fuggita da Vienna poco dopo l'arrivo dei nazisti che saccheggiando la sua abitazione trafugarono un prezioso quadro di Gustav Klimt, la Donna in Oro, in seguito restituito al governo Austriaco. Cinquanta anni dopo la coraggiosa donna decide di sfidare le autorità Austriache con l'aiuto di un giovane avvocato per chiedere che le venga restituito ciò che era suo..........


Maria Altman sought to regain a world famous painting of her aunt plundered by the Nazis during World War II. She did so not just to regain what was rightfully hers, but also to obtain some measure of justice for the death, destruction, and massive art theft perpetrated by the Nazis. ......................


FILMOGRAFIE

Ryan Reynolds  

 


Spoiler (hover to show)
General
Complete name                            : Woman In Gold (2015).ita.eng.sub.ita-MIRCrew-ICVWoman In Gold (2015).ita.eng.sub.ita-MIRCrew-ICV.avi
Format                                   : AVI
Format/Info                              : Audio Video Interleave
File size                                : 1.67 GiB
Duration                                 : 1h 49mn
Overall bit rate                         : 2 187 Kbps
Movie name                               : ENCODED by.WWWilcorsaroverde.org
Director                                 : robbyrs
Recorded date                            : 2016
Writing application                      : VirtualDubMod 1.5.10.2 (build 2540/release)
Writing library                          : VirtualDubMod build 2540/release

Video
ID                                       : 0
Format                                   : MPEG-4 Visual
Format profile                           : Simple@L3
Format settings, BVOP                    : No
Format settings, QPel                    : No
Format settings, GMC                     : No warppoints
Format settings, Matrix                  : Default (H.263)
Codec ID                                 : XVID
Codec ID/Hint                            : XviD
Duration                                 : 1h 49mn
Bit rate                                 : 1 276 Kbps
Width                                    : 720 pixels
Height                                   : 300 pixels
Display aspect ratio                     : 2.40:1
Frame rate                               : 24.000 fps
Color space                              : YUV
Chroma subsampling                       : 4:2:0
Bit depth                                : 8 bits
Scan type                                : Progressive
Compression mode                         : Lossy
Bits/(Pixel*Frame)                       : 0.246
Stream size                              : 998 MiB (58%)
Writing library                          : XviD 64

Audio #1
ID                                       : 1
Format                                   : AC-3
Format/Info                              : Audio Coding 3
Mode extension                           : CM (complete main)
Codec ID                                 : 2000
Duration                                 : 1h 49mn
Bit rate mode                            : Constant
Bit rate                                 : 448 Kbps
Channel(s)                               : 6 channels
Channel positions                        : Front: L C R, Side: L R, LFE
Sampling rate                            : 48.0 KHz
Bit depth                                : 16 bits
Compression mode                         : Lossy
Stream size                              : 350 MiB (20%)
Alignment                                : Split accross interleaves
Interleave, duration                     : 42 ms (1.00 video frame)
Interleave, preload duration             : 500 ms

Audio #2
ID                                       : 2
Format                                   : AC-3
Format/Info                              : Audio Coding 3
Mode extension                           : CM (complete main)
Codec ID                                 : 2000
Duration                                 : 1h 49mn
Bit rate mode                            : Constant
Bit rate                                 : 448 Kbps
Channel(s)                               : 6 channels
Channel positions                        : Front: L C R, Side: L R, LFE
Sampling rate                            : 48.0 KHz
Bit depth                                : 16 bits
Compression mode                         : Lossy
Stream size                              : 350 MiB (20%)
Alignment                                : Split accross interleaves
Interleave, duration                     : 42 ms (1.00 video frame)
Interleave, preload duration             : 500 ms


Woman In Gold (2015).BRrip.XviD - Italian English.Ac3.5.1.Sub.ita.MIRCrew - ICV

« Ultima modifica: 19 Maggio 2018, 11:11:20 da NATODINUOVO »

Connesso
 

Screenshots         
Categoria Other
Dimensione 1.67 GB
Data 12/10/2020
Uploader Inviato come anonimo
Nodi
Distributori: 25, Ricettori: 6 = 31 Nodi, Down = 0 volte
Report Torrent
Similar torrents
Name Added Size Seeders Leechers
Susan Hill - La Donna in Nero (The Woman in Black) 25/07/2014 1.76 MB 213 14
Woman in Gold (2015) 09/11/2016 7.47 GB 196 17
The Woman in White S01e02 03/05/2018 876.65 MB 166 26
La signora in rosso - The Woman in Red (1984) 14/09/2013 2.19 GB 156 33
The Woman In Black (2012) + Bonus 26 minuti 11/05/2013 1.85 GB 105 63
The Woman in Black (2012) 04/05/2013 7.95 GB 95 48
The Woman in White S01e05 (Finale di Stagione) 15/05/2018 944.65 MB 78 17
The Woman in White S01e04 09/05/2018 711.15 MB 68 57
The woman in black (2012) 02/03/2013 1.43 GB 67 83
La.Signora.In.Rosso.The.Woman.In.Red.(1984).H264.Ita.Eng.Fra.Ger.Spa.Ac3.5.1.Multi.Sub.[BaMax71].mkv.torrent 24/02/2018 1.52 GB 60 7
Aggiorna
Ultimo aggiornamento 29/10/2020 02:11:45 (29/10/2020 02:11:45)


Utente
Commento:
smile1.gif wink.gif grin.gif tongue.gif sad.gif cry.gif noexpression.gif confused.gif ohmy.gif cool1.gif angel.gif sleep.gif angry.gif smile2.gif laugh.gif cool2.gif
Altre Emoticon
   



Supportaci
Supporta lo sviluppo e manutenzione del portale ~ Support portal development and maintenance ~ ilCorSaRoBlu.org Say Thank You!
 
Donazioni questo mese: 51%

Obbiettivo: €100
Fino a: 31/10/20
Ultimi Donatori
Donatore: Data:
V.I.P.bisca9311💗26/10/2020
V.I.P.marsr28💗18/10/2020
V.I.P.leon27461💗15/10/2020
V.I.P.Pepi89💗13/10/2020
V.I.P.Angelo99💗11/10/2020

click

I nostri partner
            

Site Disclaimer

www.ilCorSaRoBlu.org - Site Disclaimer

Coloro che hanno realizzato il sito (www.ilCorSaRoBlu.org) si dissociano dalle eventuali violazioni della legge n.633 del 22 aprile 1941 e successive modifiche sul diritto d' autore, specie nell'art. 172. Il materiale pubblicato è di proprietà dei rispettivi autori, i quali, tacitamente o non, hanno dato il consenso ai realizzatori per la pubblicazione sul sito. Di conseguenza, tutto il materiale pubblicato, per il fatto stesso che dev'essere utilizzato per soli scopi di studio e valutazione, non può essere definito illegale ma di libero utilizzo, quindi non viola gli art.615, 615 quater e 623 del Codice Penale; anche i Provider e gli ISP che ospitano tale materiale sono da ritenersi liberi da qualsiasi procedimento giudiziario. Poiché alcuni contenuti e informazioni all'interno della rete Web possono in vario modo violare le leggi vigenti, i realizzatori del sito avvertono l'utente che il download di alcuni file può costituire violazione di diritti d'autore e copyright. Gli autori non si assumono alcuna responsabilità a riguardo ed avvertono l'utente che l'uso che egli fa di tutto ciò che é contenuto su questo sito ricade sotto la sua completa ed esclusiva responsabilità. Scaricando uno qualunque dei files presenti sul sito l'utente concorda in un periodo di valutazione di 24 ore e prima che questo scada dovrà cancellare il file ovunque l'avrà copiato. Queste pagine non sono a scopo di lucro e i files possono essere scaricati solo per la valutazione e lo studio degli stessi.
Entrando in questo sito tutte le avvertenze riportate nel presente testo si ritengono condivise ed accettate in ogni punto, senza alcuna remora.
Chiunque non concordi con quanto suscritto è pregato di chiudere il portale ora e non visualizzare le pagine del presente sito.
Questo server non ospita nessun file ma solo i relativi torrent / metadati.

Per maggiori informazioni si prega di consultare Condizioni Generali di Uso del Sito e il relativo Removal.
Per ogni Domanda/Dubbio/Curiosità/Info si prega di contattare Il Supporto.
Buona Permanenza sul Portale www.ilCorSaRoBlu.org


Premium Membership