click

Sondaggi
Cosa ne pensi del nuovo Server del ilCorSaRoBlu.org












Dettagli Torrent
Un
UnUnUnUn

Un
Nome Un Milione Di Modi Per Morire Nel West - A Million Ways to Die in the West (2014).ita.eng.sub.ita.MIRCrew.torrent
Torrent Un Milione Di Modi Per Morire Nel West - A Million Ways to Die in the West (2014).ita.eng.sub.ita.MIRCrew.torrent
Info Hash 81cffaacbc97ae0496abfb17b8daf7e5aba908e5
Who thanked
Streaming Thor Player (Web)
(Alpha Version)
Rango Premium o V.I.P.
Richiesto,
per questa funzione!

Diventa Premium,
V.I.P. subito!
Donate

Play With Thor Player
Image
Descrizione



Un Milione Di Modi Per Morire Nel West - A Million Ways to Die in the West (2014).BRrip.XviD - Italian English.Ac3 5.1 MultiSub MIRCrew


NO FOUND ONLY ORIGINAL RELEASE

Un Milione Di Modi Per Morire Nel West

A Million Ways to Die in the West

(2014)

 
Titolo originale    A Million Ways to Die in the West
Lingua originale    inglese, sioux
Paese di produzione    Stati Uniti d'America
Anno    2014
Durata    116 min
Rapporto    2,35 : 1
Genere    commedia, western
Regia    Seth MacFarlane
Sceneggiatura    Seth MacFarlane, Alec Sulkin, Wellesley Wild
Produttore    Jason Clark, Scott Stuber
Casa di produzione    Media Rights Capital, RGB Media
Distribuzione (Italia)    Universal Pictures
Fotografia    Michael Barrett
Montaggio    Jeff Freeman
Musiche    Joel McNeely
Scenografia    Stephen J. Lineweaver
Costumi    Cindy Evans
Trucco    Svetlana Britt, Danlee Winegar, Karla Muenze

   Seth MacFarlane: Albert Stark
   Charlize Theron: Anna Leatherwood
   Amanda Seyfried: Louise
   Liam Neeson: Clinch Leatherwood
   Neil Patrick Harris: Foy
   Giovanni Ribisi: Edward
   Sarah Silverman: Ruth
   Wes Studi: Cochise
   Rex Linn: Sceriffo
   Alex Borstein: Millie
   Ralph Garman: Dan
   John Aylward: Pastore Wilson
   Amick Byram: Marcus Thornton
   Ryan Reynolds:
   Christopher Lloyd: Doc Brown
   Gilbert Gottfried: Abraham Lincoln
   Jamie Foxx: Django
   Ewan McGregor:
   John Michael Higgins:
   Jimmy Hart:
   Bill Maher:


.

1882. Nella città  di Old Stump, Arizona, Albert Stark viene scaricato dall'amata fidanzata Louise a seguito del suo ritiro da un duello. Così Albert si prepara a partire per San Francisco, credendo che il West americano non sia adatto a lui......
As a cowardly farmer begins to fall for the mysterious new woman in town, he must put his new-found courage to the test when her husband, a notorious gun-slinger, announces his arrival...........

FILMOGRAFIE

Charlize Theron  - Ryan Reynolds  

Spoiler (hover to show)
General
Complete name                            : Un Milione Di Modi Per Morire Nel West - A Million Ways to Die in the West (2014).ita.eng.sub.ita.MIRCrewUn Milione Di Modi Per Morire Nel West (2014).MIRCrew.multisub.avi
Format                                   : AVI
Format/Info                              : Audio Video Interleave
File size                                : 1.81 GiB
Duration                                 : 1h 51mn
Overall bit rate                         : 2 325 Kbps
Writing application                      : VirtualDubMod 1.5.4.1 (build 2178/release)
Writing library                          : VirtualDubMod build 2178/release

Video
ID                                       : 0
Format                                   : MPEG-4 Visual
Format profile                           : Advanced [email protected]
Format settings, BVOP                    : No
Format settings, QPel                    : No
Format settings, GMC                     : No warppoints
Format settings, Matrix                  : Custom
Codec ID                                 : XVID
Codec ID/Hint                            : XviD
Duration                                 : 1h 51mn
Bit rate                                 : 1 548 Kbps
Width                                    : 688 pixels
Height                                   : 288 pixels
Display aspect ratio                     : 2.40:1
Frame rate                               : 25.000 fps
Color space                              : YUV
Chroma subsampling                       : 4:2:0
Bit depth                                : 8 bits
Scan type                                : Progressive
Compression mode                         : Lossy
Bits/(Pixel*Frame)                       : 0.313
Stream size                              : 1.20 GiB (67%)
Writing library                          : XviD 64

Audio #1
ID                                       : 1
Format                                   : AC-3
Format/Info                              : Audio Coding 3
Mode extension                           : CM (complete main)
Codec ID                                 : 2000
Duration                                 : 1h 51mn
Bit rate mode                            : Constant
Bit rate                                 : 384 Kbps
Channel(s)                               : 6 channels
Channel positions                        : Front: L C R, Side: L R, LFE
Sampling rate                            : 48.0 KHz
Bit depth                                : 16 bits
Compression mode                         : Lossy
Stream size                              : 305 MiB (17%)
Alignment                                : Split accross interleaves
Interleave, duration                     : 96 ms (2.40 video frames)
Interleave, preload duration             : 96 ms
Language                                 : Italian

Audio #2
ID                                       : 2
Format                                   : AC-3
Format/Info                              : Audio Coding 3
Mode extension                           : CM (complete main)
Codec ID                                 : 2000
Duration                                 : 1h 51mn
Bit rate mode                            : Constant
Bit rate                                 : 384 Kbps
Channel(s)                               : 6 channels
Channel positions                        : Front: L C R, Side: L R, LFE
Sampling rate                            : 48.0 KHz
Bit depth                                : 16 bits
Compression mode                         : Lossy
Stream size                              : 305 MiB (17%)
Alignment                                : Split accross interleaves
Interleave, duration                     : 96 ms (2.40 video frames)
Interleave, preload duration             : 96 ms
Language                                 : English


Un Milione Di Modi Per Morire Nel West  (2014).BRrip.XviD - Italian English.Ac3 5.1 MultiSub MIRCrew
« Ultima modifica: 19 Maggio 2018, 11:27:11 da NATODINUOVO »

Connesso
 

Screenshots         
Categoria Other
Dimensione 1.82 GB
Data 16/03/2020
Uploader Inviato come anonimo
Nodi
Distributori: 16, Ricettori: 4 = 20 Nodi, Down = 0 volte
Report Torrent
Similar torrents
Name Added Size Seeders Leechers
Alan Ford 018 - IL CANE DA UN MILIONE DI DOLLARI 27/11/2010 77.29 MB 198 83
Come Rubare un Milione di Dollari e Vivere Felici (1966) 21/10/2010 6.95 GB 194 43
Daleks Il Futuro Tra Un Milione Di Anni (1966) 21/06/2012 1.08 GB 177 89
Daleks il futuro tra un milione di anni (1966) - Daleks Invasion Earth 2150 22/08/2011 3.86 GB 175 36
Beth Revis - Brilleremo tra un milione di soli 15/09/2016 2.38 MB 172 20
Un Milione Di Modi Per Morire Nel West (2014) 06/08/2016 7.56 GB 144 92
John Barnes - Un Milione Di Porte 18/03/2017 3.39 MB 135 31
Come Sposare Un Milionario (1953) - Jean Negulesco 04/02/2011 1.12 GB 112 39
Daleks - Il futuro fra un milione di anni (1966) 15/11/2016 3.34 GB 110 89
Edgar Wallace - Cercasi un milione 16/04/2015 13.77 MB 100 34
Aggiorna
Ultimo aggiornamento 19/08/2022 19:49:12 (19/08/2022 19:49:12)


Utente
Commento:
smile1.gif wink.gif grin.gif tongue.gif sad.gif cry.gif noexpression.gif confused.gif ohmy.gif cool1.gif angel.gif sleep.gif angry.gif smile2.gif laugh.gif cool2.gif
Altre Emoticon
   



Supportaci
Supporta lo sviluppo e manutenzione del portale ~ Support portal development and maintenance ~ ilCorSaRoBlu.org Say Thank You!
 
Donazioni questo mese: 18%

Obbiettivo: €120
Fino a: 31/08/22
Ultimi Donatori
Donatore: Data:
V.I.P.bruce63💗15/08/2022
V.I.P.saurorex💗15/08/2022
V.I.P.Angelo99💗12/08/2022
V.I.P.pippolippo💗07/08/2022
Anonimo31/07/2022


click

I nostri partner
            

Site Disclaimer

www.ilCorSaRoBlu.org - Site Disclaimer

Coloro che hanno realizzato il sito (www.ilCorSaRoBlu.org) si dissociano dalle eventuali violazioni della legge n.633 del 22 aprile 1941 e successive modifiche sul diritto d' autore, specie nell'art. 172. Il materiale pubblicato è di proprietà dei rispettivi autori, i quali, tacitamente o non, hanno dato il consenso ai realizzatori per la pubblicazione sul sito. Di conseguenza, tutto il materiale pubblicato, per il fatto stesso che dev'essere utilizzato per soli scopi di studio e valutazione, non può essere definito illegale ma di libero utilizzo, quindi non viola gli art.615, 615 quater e 623 del Codice Penale; anche i Provider e gli ISP che ospitano tale materiale sono da ritenersi liberi da qualsiasi procedimento giudiziario. Poiché alcuni contenuti e informazioni all'interno della rete Web possono in vario modo violare le leggi vigenti, i realizzatori del sito avvertono l'utente che il download di alcuni file può costituire violazione di diritti d'autore e copyright. Gli autori non si assumono alcuna responsabilità a riguardo ed avvertono l'utente che l'uso che egli fa di tutto ciò che é contenuto su questo sito ricade sotto la sua completa ed esclusiva responsabilità. Scaricando uno qualunque dei files presenti sul sito l'utente concorda in un periodo di valutazione di 24 ore e prima che questo scada dovrà cancellare il file ovunque l'avrà copiato. Queste pagine non sono a scopo di lucro e i files possono essere scaricati solo per la valutazione e lo studio degli stessi.
Entrando in questo sito tutte le avvertenze riportate nel presente testo si ritengono condivise ed accettate in ogni punto, senza alcuna remora.
Chiunque non concordi con quanto suscritto è pregato di chiudere il portale ora e non visualizzare le pagine del presente sito.
Questo server non ospita nessun file ma solo i relativi torrent / metadati.

Per maggiori informazioni si prega di consultare Condizioni Generali di Uso del Sito e il relativo Removal.
Per ogni Domanda/Dubbio/Curiosità/Info si prega di contattare Il Supporto.
Buona Permanenza sul Portale www.ilCorSaRoBlu.org


Premium Membership