click

Sondaggi
Cosa ne pensi del nuovo Server del ilCorSaRoBlu.org












Dettagli Torrent
Tremors
TremorsTremorsTremorsTremors

Tremors
Nome Tremors 3 - Ritorno a Perfection (2001).ita.eng.sub.ita.eng.MIRCrew.1.torrent.icb.torrent
Torrent Tremors 3 - Ritorno a Perfection (2001).ita.eng.sub.ita.eng.MIRCrew.1.torrent.icb.torrent
Info Hash dfa9ab3138136639f00467c38d3d29daba1004ea
Who thanked
Streaming Thor Player (Web)
(Alpha Version)
Rango Premium o V.I.P.
Richiesto,
per questa funzione!

Diventa Premium,
V.I.P. subito!
Donate

Play With Thor Player
Image
Descrizione



Tremors 3  - Ritorno a Perfection (2001).BRrip.XviD - Italian English.Ac3.Sub.ita.eng.MIRCrew
NO FOUND ONLY ORIGINAL RELEASE

My release is always in double track audio italian and Original audio
for select it use VLC or dvd player home
not use wmp


Tremors 3  - Ritorno a Perfection

(2001)

 

Tremors 3 - Ritorno a Perfection è un film di Brent Maddock
Genere: Horror - Fantascienza
Anno: 2001
Paese: USA
Durata: 104'
Trucco    Peta Hastings
Michael Gross, Shawn Christian, Susan Chuang, Charlotte Stewart, Ariana Richards, Tony Genaro, Barry Livingston, John Pappas, Robert Jayne, Billy Rieck, Mary Gross, Kelly Connell, Matthew Seth Wilson, Jason Hopkins, Lorna Scott
 


Ormai divenuto uno specialista nella caccia ai graboidi - o "shriekers", come sono stati chiamati i mostri dopo la mutazione in bipedi, avvenuta nel film precedente - Burt Gummer (M. Gross), reduce da una spedizione in Argentina dove ha sterminato un'orda di quelle creature, decide di tornarsene a casa. Ma il minuscolo villaggio di Perfection, Nevada, è ormai un'attrazione turistica, e brulica di visitatori, curiosi di osservare i luoghi in cui ha avuto inizio la vicenda. I pochi residenti, vecchi e nuovi, fanno ovviamente del loro meglio per sfruttare la situazione. Un giorno però, durante lo spettacolo quotidiano che ricostruisce dal vivo l'insidia dei graboidi...........
Third entry in series returns to the small desert town of Perfection, Nevada seen in the first and briefly in the second. ...................

Spoiler (hover to show)
General
Complete name                            : Tremors 3  - Ritorno a Perfection (2001).ita.eng.sub.ita.eng.MIRCrew.avi
Format                                   : AVI
Format/Info                              : Audio Video Interleave
File size                                : 1.56 GiB
Duration                                 : 1h 43mn
Overall bit rate                         : 2 154 Kbps
Movie name                               : MIRCrew by robbyrs
Writing application                      : VirtualDubMod 1.5.10.2 (build 2540/release)
Writing library                          : VirtualDubMod build 2540/release

Video
ID                                       : 0
Format                                   : MPEG-4 Visual
Format profile                           : [email protected]
Format settings, BVOP                    : No
Format settings, QPel                    : No
Format settings, GMC                     : No warppoints
Format settings, Matrix                  : Default (H.263)
Codec ID                                 : XVID
Codec ID/Hint                            : XviD
Duration                                 : 1h 43mn
Bit rate                                 : 1 500 Kbps
Width                                    : 720 pixels
Height                                   : 390 pixels
Display aspect ratio                     : 16:9
Frame rate                               : 23.976 fps
Color space                              : YUV
Chroma subsampling                       : 4:2:0
Bit depth                                : 8 bits
Scan type                                : Progressive
Compression mode                         : Lossy
Bits/(Pixel*Frame)                       : 0.223
Stream size                              : 1.09 GiB (70%)
Writing library                          : XviD 64

Audio #1
ID                                       : 1
Format                                   : AC-3
Format/Info                              : Audio Coding 3
Mode extension                           : CM (complete main)
Codec ID                                 : 2000
Duration                                 : 1h 43mn
Bit rate mode                            : Constant
Bit rate                                 : 256 Kbps
Channel(s)                               : 2 channels
Channel positions                        : Front: L R
Sampling rate                            : 48.0 KHz
Bit depth                                : 16 bits
Compression mode                         : Lossy
Stream size                              : 190 MiB (12%)
Alignment                                : Split accross interleaves
Interleave, duration                     : 42 ms (1.00 video frame)
Interleave, preload duration             : 500 ms

Audio #2
ID                                       : 2
Format                                   : AC-3
Format/Info                              : Audio Coding 3
Mode extension                           : CM (complete main)
Codec ID                                 : 2000
Duration                                 : 1h 43mn
Bit rate mode                            : Constant
Bit rate                                 : 384 Kbps
Channel(s)                               : 6 channels
Channel positions                        : Front: L C R, Side: L R, LFE
Sampling rate                            : 48.0 KHz
Bit depth                                : 16 bits
Compression mode                         : Lossy
Stream size                              : 285 MiB (18%)
Alignment                                : Split accross interleaves
Interleave, duration                     : 42 ms (1.00 video frame)
Interleave, preload duration             : 500 ms


Tremors 3  - Back to Perfection  - Ritorno a Perfection (2001).BRrip.XviD - Italian English.Ac3.Sub.ita.eng.MIRCrew
Connesso
 

Screenshots         
Categoria Other
Dimensione 1.57 GB
Data 25/02/2021
Uploader Inviato come anonimo
Nodi
Distributori: 11, Ricettori: 3 = 14 Nodi, Down = 0 volte
Report Torrent
Similar torrents
Name Added Size Seeders Leechers
Tremors (1990) 04/12/2010 4.41 GB 212 32
Tremors 3 (2001) 20/01/2006 653.82 MB 210 67
Tremors 4 - Iniziò così 20/01/2006 691.32 MB 173 67
Tremors 5: Bloodlines (2015) 21/10/2016 4.03 GB 170 69
Tremors S01e01-13 14/01/2020 4.60 GB 143 80
Tremors 2 - Aftershocks (1996) 11/04/2016 4.06 GB 134 45
Tremors 4 - Agli inizi della leggenda (2003) 20/04/2016 4.10 GB 130 37
Tremors (1989) 12/02/2011 7.95 GB 120 62
Tremors 3 - Ritorno a Perfection (2001) 30/03/2020 4.20 GB 118 24
Tremors (Underwood, 1990) 15/08/2012 1.37 GB 116 21
Aggiorna
Ultimo aggiornamento 10/04/2021 21:54:38 (10/04/2021 21:54:38)


Utente
Commento:
smile1.gif wink.gif grin.gif tongue.gif sad.gif cry.gif noexpression.gif confused.gif ohmy.gif cool1.gif angel.gif sleep.gif angry.gif smile2.gif laugh.gif cool2.gif
Altre Emoticon
   



Supportaci
Supporta lo sviluppo e manutenzione del portale ~ Support portal development and maintenance ~ ilCorSaRoBlu.org Say Thank You!
 
Donazioni questo mese: 36%

Obbiettivo: €100
Fino a: 30/04/21
Ultimi Donatori
Donatore: Data:
V.I.P.deepnik77💗09/04/2021
V.I.P.biaginus💗05/04/2021
V.I.P.artsoft55💗03/04/2021
V.I.P.jaco390💗01/04/2021
V.I.P.kyuss75💗31/03/2021

click

I nostri partner
            

Site Disclaimer

www.ilCorSaRoBlu.org - Site Disclaimer

Coloro che hanno realizzato il sito (www.ilCorSaRoBlu.org) si dissociano dalle eventuali violazioni della legge n.633 del 22 aprile 1941 e successive modifiche sul diritto d' autore, specie nell'art. 172. Il materiale pubblicato è di proprietà dei rispettivi autori, i quali, tacitamente o non, hanno dato il consenso ai realizzatori per la pubblicazione sul sito. Di conseguenza, tutto il materiale pubblicato, per il fatto stesso che dev'essere utilizzato per soli scopi di studio e valutazione, non può essere definito illegale ma di libero utilizzo, quindi non viola gli art.615, 615 quater e 623 del Codice Penale; anche i Provider e gli ISP che ospitano tale materiale sono da ritenersi liberi da qualsiasi procedimento giudiziario. Poiché alcuni contenuti e informazioni all'interno della rete Web possono in vario modo violare le leggi vigenti, i realizzatori del sito avvertono l'utente che il download di alcuni file può costituire violazione di diritti d'autore e copyright. Gli autori non si assumono alcuna responsabilità a riguardo ed avvertono l'utente che l'uso che egli fa di tutto ciò che é contenuto su questo sito ricade sotto la sua completa ed esclusiva responsabilità. Scaricando uno qualunque dei files presenti sul sito l'utente concorda in un periodo di valutazione di 24 ore e prima che questo scada dovrà cancellare il file ovunque l'avrà copiato. Queste pagine non sono a scopo di lucro e i files possono essere scaricati solo per la valutazione e lo studio degli stessi.
Entrando in questo sito tutte le avvertenze riportate nel presente testo si ritengono condivise ed accettate in ogni punto, senza alcuna remora.
Chiunque non concordi con quanto suscritto è pregato di chiudere il portale ora e non visualizzare le pagine del presente sito.
Questo server non ospita nessun file ma solo i relativi torrent / metadati.

Per maggiori informazioni si prega di consultare Condizioni Generali di Uso del Sito e il relativo Removal.
Per ogni Domanda/Dubbio/Curiosità/Info si prega di contattare Il Supporto.
Buona Permanenza sul Portale www.ilCorSaRoBlu.org


Premium Membership