click

Sondaggi
Cosa ne pensi del nuovo Server del ilCorSaRoBlu.org













Dettagli Torrent
Trash
TrashTrashTrashTrash

Trash
Nome Trash (2014).ita.eng.sub.ita.MIRCrew.torrent
Torrent Trash (2014).ita.eng.sub.ita.MIRCrew.torrent
Info Hash 179151ff8e901ef149a017342e4ada4c4a67a34e
Who thanked
Streaming Thor Player (Web)
(Alpha Version)
Rango Premium o V.I.P.
Richiesto,
per questa funzione!

Diventa Premium,
V.I.P. subito!
Donate

Play With Thor Player
Image
Descrizione



Trash (2014).DVDrip.XviD - Italian English.Ac3.5.1.Sub.Ita.MIRCrew


NO FOUND ONLY ORIGINAL RELEASE

Trash

(2014)

 
Premi e riconoscimenti

   2015 - Premio BAFTA
       Nomination Miglior film straniero
   2014 - Festival internazionale del film di Roma
       Premio BNL del pubblico al miglior film


Titolo originale    Trash
Lingua originale    inglese
Paese di produzione    Regno Unito
Anno    2014
Durata    113 min
Genere    drammatico, avventura, thriller
Regia    Stephen Daldry
Soggetto    Andy Mulligan (libro)
Sceneggiatura    Richard Curtis, Felipe Braga
Produttore    Tim Bevan, Eric Fellner, Kris Thykier
Produttore esecutivo    Bel Berlinck
Casa di produzione    O2 Filmes, PeaPie Films, Working Title Films
Distribuzione (Italia)    Universal Pictures
Fotografia    Adriano Goldman
Montaggio    Elliot Graham
Scenografia    Tulé Peak
Costumi    Bia Salgado
Trucco    Sandro Valerio

   Rooney Mara: Olivia
   Martin Sheen: Padre Juilliard
   Wagner Moura: José Angelo
   Selton Mello: Frederico Gonz
   Rickson Tevez: Raphael
   Eduardo Luis: Gardo
   Gabriel Weinstein: Rato
   André Ramiro: Marco
   Stepan Nercessian: Antonio Santos
   José Dumont: Poliziotto Carlos
   Jesuíta Barbosa: Turk
   Christiane Amanpour: sé stessa

 
.

A Rio de Janeiro, tre minorenni poveri passano il tempo a rovistare tra la spazzatura di una discarica, finché uno di loro trova fra l'immondizia il portafoglio di un uomo scomparso in circostanze non chiare. Il rinvenimento suscita vivo interesse nelle autorità  locali. I ragazzini si ritrovano così coinvolti in uno sporco intrigo politico-poliziesco e decidono di trasformarsi in un trio di giustizieri......
Set in Brazil, three kids who make a discovery in a garbage dump soon find themselves running from the cops and trying to right a terrible wrong.

 


Spoiler (hover to show)
General
Complete name                            : Trash (2014).ita.eng.sub.ita.MIRCrewTrash (2014).ita.eng.sub.ita.MIRCrew.avi
Format                                   : AVI
Format/Info                              : Audio Video Interleave
File size                                : 1.66 GiB
Duration                                 : 1h 49mn
Overall bit rate                         : 2 176 Kbps
Writing application                      : VirtualDubMod 1.5.4.1 (build 2178/release)
Writing library                          : VirtualDubMod build 2178/release

Video
ID                                       : 0
Format                                   : MPEG-4 Visual
Format profile                           : Advanced Simple@L5
Format settings, BVOP                    : 1
Format settings, QPel                    : No
Format settings, GMC                     : No warppoints
Format settings, Matrix                  : Custom
Codec ID                                 : XVID
Codec ID/Hint                            : XviD
Duration                                 : 1h 49mn
Bit rate                                 : 1 399 Kbps
Width                                    : 688 pixels
Height                                   : 304 pixels
Display aspect ratio                     : 2.25:1
Frame rate                               : 25.000 fps
Color space                              : YUV
Chroma subsampling                       : 4:2:0
Bit depth                                : 8 bits
Scan type                                : Progressive
Compression mode                         : Lossy
Bits/(Pixel*Frame)                       : 0.268
Stream size                              : 1.07 GiB (64%)
Writing library                          : XviD 64

Audio #1
ID                                       : 1
Format                                   : AC-3
Format/Info                              : Audio Coding 3
Mode extension                           : CM (complete main)
Codec ID                                 : 2000
Duration                                 : 1h 49mn
Bit rate mode                            : Constant
Bit rate                                 : 384 Kbps
Channel(s)                               : 6 channels
Channel positions                        : Front: L C R, Side: L R, LFE
Sampling rate                            : 48.0 KHz
Bit depth                                : 16 bits
Compression mode                         : Lossy
Stream size                              : 300 MiB (18%)
Alignment                                : Split accross interleaves
Interleave, duration                     : 96 ms (2.40 video frames)
Interleave, preload duration             : 96 ms
Language                                 : Italian

Audio #2
ID                                       : 2
Format                                   : AC-3
Format/Info                              : Audio Coding 3
Mode extension                           : CM (complete main)
Codec ID                                 : 2000
Duration                                 : 1h 49mn
Bit rate mode                            : Constant
Bit rate                                 : 384 Kbps
Channel(s)                               : 6 channels
Channel positions                        : Front: L C R, Side: L R, LFE
Sampling rate                            : 48.0 KHz
Bit depth                                : 16 bits
Compression mode                         : Lossy
Stream size                              : 300 MiB (18%)
Alignment                                : Split accross interleaves
Interleave, duration                     : 96 ms (2.40 video frames)
Interleave, preload duration             : 96 ms
Language                                 : English


Trash (2014).DVDrip.XviD - Italian English.Ac3.5.1.Sub.Ita.MIRCrew
« Ultima modifica: 21 Febbraio 2016, 23:19:33 da Ba79 »

Connesso
 

Screenshots         
Categoria Other
Dimensione 1.68 GB
Data 29/12/2020
Uploader Inviato come anonimo
Nodi
Distributori: 6, Ricettori: 7 = 13 Nodi, Down = 0 volte
Report Torrent
Similar torrents
Name Added Size Seeders Leechers
Trash (2014) 18/04/2016 2.89 GB 161 90
Aggiorna
Ultimo aggiornamento 28/01/2021 15:35:49 (28/01/2021 15:35:49)


Utente
Commento:
smile1.gif wink.gif grin.gif tongue.gif sad.gif cry.gif noexpression.gif confused.gif ohmy.gif cool1.gif angel.gif sleep.gif angry.gif smile2.gif laugh.gif cool2.gif
Altre Emoticon
   



Supportaci
Supporta lo sviluppo e manutenzione del portale ~ Support portal development and maintenance ~ ilCorSaRoBlu.org Say Thank You!
 
Donazioni questo mese: 199%

Obbiettivo: €100
Fino a: 31/01/21
Ultimi Donatori
Donatore: Data:
V.I.P.stremato💗27/01/2021
V.I.P.inno1973💗27/01/2021
V.I.P.tulbin73💗25/01/2021
M***ia Bar***i*i23/01/2021
V.I.P.doctoreffe💗22/01/2021

click

I nostri partner
            

Site Disclaimer

www.ilCorSaRoBlu.org - Site Disclaimer

Coloro che hanno realizzato il sito (www.ilCorSaRoBlu.org) si dissociano dalle eventuali violazioni della legge n.633 del 22 aprile 1941 e successive modifiche sul diritto d' autore, specie nell'art. 172. Il materiale pubblicato è di proprietà dei rispettivi autori, i quali, tacitamente o non, hanno dato il consenso ai realizzatori per la pubblicazione sul sito. Di conseguenza, tutto il materiale pubblicato, per il fatto stesso che dev'essere utilizzato per soli scopi di studio e valutazione, non può essere definito illegale ma di libero utilizzo, quindi non viola gli art.615, 615 quater e 623 del Codice Penale; anche i Provider e gli ISP che ospitano tale materiale sono da ritenersi liberi da qualsiasi procedimento giudiziario. Poiché alcuni contenuti e informazioni all'interno della rete Web possono in vario modo violare le leggi vigenti, i realizzatori del sito avvertono l'utente che il download di alcuni file può costituire violazione di diritti d'autore e copyright. Gli autori non si assumono alcuna responsabilità a riguardo ed avvertono l'utente che l'uso che egli fa di tutto ciò che é contenuto su questo sito ricade sotto la sua completa ed esclusiva responsabilità. Scaricando uno qualunque dei files presenti sul sito l'utente concorda in un periodo di valutazione di 24 ore e prima che questo scada dovrà cancellare il file ovunque l'avrà copiato. Queste pagine non sono a scopo di lucro e i files possono essere scaricati solo per la valutazione e lo studio degli stessi.
Entrando in questo sito tutte le avvertenze riportate nel presente testo si ritengono condivise ed accettate in ogni punto, senza alcuna remora.
Chiunque non concordi con quanto suscritto è pregato di chiudere il portale ora e non visualizzare le pagine del presente sito.
Questo server non ospita nessun file ma solo i relativi torrent / metadati.

Per maggiori informazioni si prega di consultare Condizioni Generali di Uso del Sito e il relativo Removal.
Per ogni Domanda/Dubbio/Curiosità/Info si prega di contattare Il Supporto.
Buona Permanenza sul Portale www.ilCorSaRoBlu.org


Premium Membership