click

Sondaggi
Cosa ne pensi del nuovo Server del ilCorSaRoBlu.org













Dettagli Torrent
Quel
QuelQuelQuelQuel

Quel
Nome Quel che sapeva Maisie - What Maisie Knew (2012).ita.eng.sub.ita.eng.iCV-MIRCrew.1.torrent
Torrent Quel che sapeva Maisie - What Maisie Knew (2012).ita.eng.sub.ita.eng.iCV-MIRCrew.1.torrent
Info Hash c80c913edd6649dba605a1b0b05ac07ab5be83f5
Who thanked
Streaming Thor Player (Web)
(Alpha Version)
Rango Premium o V.I.P.
Richiesto,
per questa funzione!

Diventa Premium,
V.I.P. subito!
Donate

Play With Thor Player
Image
Descrizione



Quel che sapeva Maisie - What Maisie Knew (2012).BRrip.XviD - Italian.English.Ac3.5.1.Sub.Ita.Eng.iCV-MIRCrew

NO FOUND ONLY ORIGINAL RELEASE

My release is always in double track audio italian and Original audio
for select it use VLC or dvd player home
not use wmp

Quel che sapeva Maisie

What Maisie Knew

(2012)

Titolo originale    What Maisie Knew
Lingua originale    inglese
Paese di produzione    Stati Uniti d'America
Anno    2012
Durata    93 min
Rapporto    2,35 : 1
Genere    drammatico
Regia    Scott McGehee, David Siegel
Soggetto    Henry James (romanzo)
Sceneggiatura    Nancy Doyne, Carroll Cartwright
Produttore    William Teitler, Charles Weinstock, Daniela Taplin Lundberg, Daniel Crown
Casa di produzione    Red Crown Productions
Weinstock Productions 10th Hole Productions KODA Entertainment 120dB Films Dreambridge Films
Distribuzione (Italia)    Teodora Film
Fotografia    Giles Nuttgens
Montaggio    Madeleine Gavin
Musiche    Nick Urata
Scenografia    Kelly McGehee

   Julianne Moore: Susanna
   Alexander Skarsgård: Lincoln
   Steve Coogan: Beale
   Onata Aprile: Maisie
   Joanna Vanderham: Margo
 


Maisie è una bambina di sei anni dotata di uno spiccato spirito d'osservazione, che la rende molto più matura della sua età. Quando i suoi genitori, una rockstar e un mercante d'arte, decidono di divorziare, la piccola si ritrova al centro della battaglia di rancori tra i due genitori......
What Maisie Knew is a contemporary New York City revisioning of the Henry James novel by the same name. It revolves around unwitting 7-year-old Maisie, caught in the middle of a custody battle between her mother Susanna, an aging rock star, and her father, Beale, a major art dealer......
 

Spoiler (hover to show)
General
Complete name                            : Quel che sapeva Maisie - What Maisie Knew (2012).ita.eng.sub.ita.eng.iCV-MIRCrew.avi
Format                                   : AVI
Format/Info                              : Audio Video Interleave
File size                                : 1.67 GiB
Duration                                 : 1h 38mn
Overall bit rate                         : 2 410 Kbps
Movie name                               : www.icv-crew.org
Writing application                      : VirtualDubMod 1.5.10.2 (build 2540/release)
Writing library                          : VirtualDubMod build 2540/release

Video
ID                                       : 0
Format                                   : MPEG-4 Visual
Format profile                           : Simple@L3
Format settings, BVOP                    : No
Format settings, QPel                    : No
Format settings, GMC                     : No warppoints
Format settings, Matrix                  : Default (H.263)
Codec ID                                 : XVID
Codec ID/Hint                            : XviD
Duration                                 : 1h 38mn
Bit rate                                 : 1 500 Kbps
Width                                    : 688 pixels
Height                                   : 286 pixels
Display aspect ratio                     : 2.40:1
Frame rate                               : 23.976 fps
Color space                              : YUV
Chroma subsampling                       : 4:2:0
Bit depth                                : 8 bits
Scan type                                : Progressive
Compression mode                         : Lossy
Bits/(Pixel*Frame)                       : 0.318
Stream size                              : 1.04 GiB (62%)
Writing library                          : XviD 64

Audio #1
ID                                       : 1
Format                                   : AC-3
Format/Info                              : Audio Coding 3
Mode extension                           : CM (complete main)
Codec ID                                 : 2000
Duration                                 : 1h 38mn
Bit rate mode                            : Constant
Bit rate                                 : 448 Kbps
Channel(s)                               : 6 channels
Channel positions                        : Front: L C R, Side: L R, LFE
Sampling rate                            : 48.0 KHz
Bit depth                                : 16 bits
Compression mode                         : Lossy
Stream size                              : 317 MiB (19%)
Alignment                                : Split accross interleaves
Interleave, duration                     : 42 ms (1.00 video frame)
Interleave, preload duration             : 500 ms

Audio #2
ID                                       : 2
Format                                   : AC-3
Format/Info                              : Audio Coding 3
Mode extension                           : CM (complete main)
Codec ID                                 : 2000
Duration                                 : 1h 38mn
Bit rate mode                            : Constant
Bit rate                                 : 448 Kbps
Channel(s)                               : 6 channels
Channel positions                        : Front: L C R, Side: L R, LFE
Sampling rate                            : 48.0 KHz
Bit depth                                : 16 bits
Compression mode                         : Lossy
Stream size                              : 317 MiB (19%)
Alignment                                : Split accross interleaves
Interleave, duration                     : 42 ms (1.00 video frame)
Interleave, preload duration             : 500 ms
FILMOGRAFIE

Julianne Moore


Contenuto nascosto visualizzato:
Quel che sapeva Maisie - What Maisie Knew (2012).BRrip.XviD - Italian.English.Ac3.5.1.Sub.Ita.Eng.iC
« Ultima modifica: 27 Settembre 2017, 07:34:06 da NATODINUOVO »

Connesso
 

Screenshots         
Categoria Other
Dimensione 1.67 GB
Data 13/01/2021
Uploader Inviato come anonimo
Nodi
Distributori: 20, Ricettori: 12 = 32 Nodi, Down = 0 volte
Report Torrent
Similar torrents
Name Added Size Seeders Leechers
Fabrizio Moro - Ognuno ha quel che si merita(2005) 01/12/2013 43.06 MB 215 22
Quel Che Sapeva Maisie (2012) 31/07/2015 3.27 GB 203 36
Quel che resta del giorno - The Remains of the Day (1993) 29/12/2016 12.29 GB 164 23
Nina Merian - Quel che i gatti non dicono 20/08/2016 902.40 KB 157 62
Quel Che Resta Del Giorno (1993) 27/03/2009 1.38 GB 135 53
Marcela Serrano - Quel che cè nel mio cuore 01/09/2016 2.13 MB 132 27
Quel che resta del giorno (1993) 06/03/2016 4.79 GB 95 49
Shakespeare - Tutto E Bene Quel Che Finisce Bene 07/02/2012 460.80 KB 91 72
Catherine Dunne - Quel che ora sappiamo 03/06/2016 1.29 MB 89 14
G. Rizzolatti, C. Sinigaglia - So quel che fai 01/06/2015 24.60 MB 83 53
Aggiorna
Ultimo aggiornamento 23/01/2021 16:23:37 (23/01/2021 16:23:37)


Utente
Commento:
smile1.gif wink.gif grin.gif tongue.gif sad.gif cry.gif noexpression.gif confused.gif ohmy.gif cool1.gif angel.gif sleep.gif angry.gif smile2.gif laugh.gif cool2.gif
Altre Emoticon
   



Supportaci
Supporta lo sviluppo e manutenzione del portale ~ Support portal development and maintenance ~ ilCorSaRoBlu.org Say Thank You!
 
Donazioni questo mese: 168%

Obbiettivo: €100
Fino a: 31/01/21
Ultimi Donatori
Donatore: Data:
M***ia Bar***i*i23/01/2021
V.I.P.doctoreffe💗22/01/2021
V.I.P.BigSteven💗22/01/2021
V.I.P.Reinhart💗22/01/2021
V.I.P.Aldo51💗21/01/2021

click

I nostri partner
            

Site Disclaimer

www.ilCorSaRoBlu.org - Site Disclaimer

Coloro che hanno realizzato il sito (www.ilCorSaRoBlu.org) si dissociano dalle eventuali violazioni della legge n.633 del 22 aprile 1941 e successive modifiche sul diritto d' autore, specie nell'art. 172. Il materiale pubblicato è di proprietà dei rispettivi autori, i quali, tacitamente o non, hanno dato il consenso ai realizzatori per la pubblicazione sul sito. Di conseguenza, tutto il materiale pubblicato, per il fatto stesso che dev'essere utilizzato per soli scopi di studio e valutazione, non può essere definito illegale ma di libero utilizzo, quindi non viola gli art.615, 615 quater e 623 del Codice Penale; anche i Provider e gli ISP che ospitano tale materiale sono da ritenersi liberi da qualsiasi procedimento giudiziario. Poiché alcuni contenuti e informazioni all'interno della rete Web possono in vario modo violare le leggi vigenti, i realizzatori del sito avvertono l'utente che il download di alcuni file può costituire violazione di diritti d'autore e copyright. Gli autori non si assumono alcuna responsabilità a riguardo ed avvertono l'utente che l'uso che egli fa di tutto ciò che é contenuto su questo sito ricade sotto la sua completa ed esclusiva responsabilità. Scaricando uno qualunque dei files presenti sul sito l'utente concorda in un periodo di valutazione di 24 ore e prima che questo scada dovrà cancellare il file ovunque l'avrà copiato. Queste pagine non sono a scopo di lucro e i files possono essere scaricati solo per la valutazione e lo studio degli stessi.
Entrando in questo sito tutte le avvertenze riportate nel presente testo si ritengono condivise ed accettate in ogni punto, senza alcuna remora.
Chiunque non concordi con quanto suscritto è pregato di chiudere il portale ora e non visualizzare le pagine del presente sito.
Questo server non ospita nessun file ma solo i relativi torrent / metadati.

Per maggiori informazioni si prega di consultare Condizioni Generali di Uso del Sito e il relativo Removal.
Per ogni Domanda/Dubbio/Curiosità/Info si prega di contattare Il Supporto.
Buona Permanenza sul Portale www.ilCorSaRoBlu.org


Premium Membership