click

Sondaggi
Cosa ne pensi del nuovo Server del ilCorSaRoBlu.org












Dettagli Torrent
Qualcosa
QualcosaQualcosaQualcosaQualcosa

Qualcosa
Nome Qualcosa di buono - You're Not You (2014).ita.eng.sub.ita-iCV-MIRCrew.torrent
Torrent Qualcosa di buono - You're Not You (2014).ita.eng.sub.ita-iCV-MIRCrew.torrent
Info Hash ae3233fadaa2965f0156de9ba97bf1f78705b98a
Who thanked
Streaming Thor Player (Web)
(Alpha Version)
Rango Premium o V.I.P.
Richiesto,
per questa funzione!

Diventa Premium,
V.I.P. subito!
Donate

Play With Thor Player
Image
Descrizione



Qualcosa di buono (2014).BRrip.XviD - Italian.English.Ac3.5.1.Sub.ita.iCV-MIRCrew

NO FOUND ONLY ORIGINAL RELEASE

My release is always in double track audio italian and Original audio
for select it use VLC or dvd player home
not use wmp

Qualcosa di buono

You're Not You

(2014)




Titolo originale    You're Not You
Lingua originale    inglese
Paese di produzione    Stati Uniti d'America
Anno    2014
Durata    104 min
Genere    drammatico
Regia    George C. Wolfe
Soggetto    Michelle Wildgen (romanzo)
Sceneggiatura    Shana Feste, Jordan Roberts
Produttore    Hilary Swank, Denise Di Novi, Alison Greenspan, Molly Smith
Produttore esecutivo    Azim Bolkiah, Joanne Podmore, Ellen H. Schwartz, Rhian Williams
Casa di produzione    ;Daryl Prince Productions, 2S Films, DiNovi Pictures
Distribuzione (Italia)    Koch Media
Fotografia    Steven Fierberg
Montaggio    Jeffrey Wolf
Effetti speciali    Sam Dean
Scenografia    Aaron Osborne
Costumi    Marie-Sylvie Deveau

   Hilary Swank: Kate
   Emmy Rossum: Bec
   Josh Duhamel: Evan
   Jason Ritter: Will
   Julian McMahon: Liam
   Ali Larter: Keely
   Marcia Gay Harden: Elizabeth
   Ernie Hudson: John
   Loretta Devine: Marilyn
   Mike Doyle: Tom
   Andrea Savage: Alyssa
   Frances Fisher: Gwen
   Ed Begley Jr.: zio Roger
   Beau Knapp: Jackson

 


Kate è una pianista a cui viene diagnosticata la sclerosi laterale amiotrofica. Suo marito Evan cerca di trovare qualcuno che si prenda cura di sua moglie. Bec, una studentessa di college, si offre per il lavoro, nonostante la sua mancanza di esperienza. Kate vede qualcosa di speciale in Bec e vuole avere lei come assistente per le sue cose quotidiane. Kate e Bec si aiuteranno a vicenda a vivere la loro vita e trovare la loro strada nel mondo...............
Kate is a classical pianist just diagnosed with ALS. Bec is a brash college student and would-be rock singer who can barely keep her wildly chaotic affairs, romantic and otherwise, together. Yet, when Bec takes a job assisting Kate, just as Kate's marriage to Evan hits the skids, both women come to rely on what becomes an unconventional, sometimes confrontational and fiercely honest bond..................
 


Spoiler (hover to show)
General
Complete name                            : Qualcosa di buono - You're Not You (2014).ita.eng.sub.ita-iCV-MIRCrew.avi
Format                                   : AVI
Format/Info                              : Audio Video Interleave
File size                                : 1.74 GiB
Duration                                 : 1h 43mn
Overall bit rate                         : 2 412 Kbps
Movie name                               : www.icv-crew.org
Writing application                      : VirtualDubMod 1.5.10.2 (build 2540/release)
Writing library                          : VirtualDubMod build 2540/release

Video
ID                                       : 0
Format                                   : MPEG-4 Visual
Format profile                           : Simple@L3
Format settings, BVOP                    : No
Format settings, QPel                    : No
Format settings, GMC                     : No warppoints
Format settings, Matrix                  : Default (H.263)
Codec ID                                 : XVID
Codec ID/Hint                            : XviD
Duration                                 : 1h 43mn
Bit rate                                 : 1 502 Kbps
Width                                    : 720 pixels
Height                                   : 388 pixels
Display aspect ratio                     : 1.856
Frame rate                               : 24.000 fps
Color space                              : YUV
Chroma subsampling                       : 4:2:0
Bit depth                                : 8 bits
Scan type                                : Progressive
Compression mode                         : Lossy
Bits/(Pixel*Frame)                       : 0.224
Stream size                              : 1.08 GiB (62%)
Writing library                          : XviD 64

Audio #1
ID                                       : 1
Format                                   : AC-3
Format/Info                              : Audio Coding 3
Mode extension                           : CM (complete main)
Codec ID                                 : 2000
Duration                                 : 1h 43mn
Bit rate mode                            : Constant
Bit rate                                 : 448 Kbps
Channel(s)                               : 6 channels
Channel positions                        : Front: L C R, Side: L R, LFE
Sampling rate                            : 48.0 KHz
Bit depth                                : 16 bits
Compression mode                         : Lossy
Stream size                              : 330 MiB (19%)
Alignment                                : Split accross interleaves
Interleave, duration                     : 42 ms (1.00 video frame)
Interleave, preload duration             : 500 ms

Audio #2
ID                                       : 2
Format                                   : AC-3
Format/Info                              : Audio Coding 3
Mode extension                           : CM (complete main)
Codec ID                                 : 2000
Duration                                 : 1h 43mn
Bit rate mode                            : Constant
Bit rate                                 : 448 Kbps
Channel(s)                               : 6 channels
Channel positions                        : Front: L C R, Side: L R, LFE
Sampling rate                            : 48.0 KHz
Bit depth                                : 16 bits
Compression mode                         : Lossy
Stream size                              : 330 MiB (19%)
Alignment                                : Split accross interleaves
Interleave, duration                     : 42 ms (1.00 video frame)
Interleave, preload duration             : 500 ms
Qualcosa di buono (2014).DVDrip.XviD - Italian.Ac3.5.1.Sub.ita.iCV-MIRCrew

« Ultima modifica: 25 Marzo 2016, 16:16:20 da robbyrs »

Connesso
 

Screenshots         
Categoria Other
Dimensione 1.74 GB
Data 22/11/2020
Uploader Inviato come anonimo
Nodi
Distributori: 23, Ricettori: 10 = 33 Nodi, Down = 0 volte
Report Torrent
Similar torrents
Name Added Size Seeders Leechers
Napoli Centrale - Qualcosa ca nu mmore (1977) 06/03/2016 72.51 MB 215 62
Tutti vogliono qualcosa (2016) 16/06/2017 1.92 GB 206 71
Tutti vogliono qualcosa (2016) 16/06/2017 5.35 GB 205 83
Tutti vogliono qualcosa (2016) 16/06/2017 5.63 GB 201 30
Ghemon Scienz - Qualcosa Cambiera (2007) 13/01/2009 57.38 MB 200 76
Qualcosa di nuovo (2016) 13/10/2017 950.82 MB 184 68
Qualcosa di personale 11/01/2010 1.31 GB 174 30
Julie James - Qualcosa di Te 22/03/2015 3.51 MB 171 58
Qualcosa di inaspettato - Away and Back (2015) 21/04/2016 2.95 GB 144 72
E ora qualcosa di completamente diverso (1971) 03/03/2006 778.15 MB 131 36
Aggiorna
Ultimo aggiornamento 25/11/2020 02:58:23 (25/11/2020 02:58:23)


Utente
Commento:
smile1.gif wink.gif grin.gif tongue.gif sad.gif cry.gif noexpression.gif confused.gif ohmy.gif cool1.gif angel.gif sleep.gif angry.gif smile2.gif laugh.gif cool2.gif
Altre Emoticon
   



Supportaci
Supporta lo sviluppo e manutenzione del portale ~ Support portal development and maintenance ~ ilCorSaRoBlu.org Say Thank You!
 
Donazioni questo mese: 166%

Obbiettivo: €100
Fino a: 30/11/20
Ultimi Donatori
Donatore: Data:
V.I.P.robina💗19/11/2020
V.I.P.carlos1956💗18/11/2020
🏆 M4Tronick 18/11/2020
V.I.P.rossmann64💗17/11/2020
V.I.P.olemaus💗17/11/2020

click

I nostri partner
            

Site Disclaimer

www.ilCorSaRoBlu.org - Site Disclaimer

Coloro che hanno realizzato il sito (www.ilCorSaRoBlu.org) si dissociano dalle eventuali violazioni della legge n.633 del 22 aprile 1941 e successive modifiche sul diritto d' autore, specie nell'art. 172. Il materiale pubblicato è di proprietà dei rispettivi autori, i quali, tacitamente o non, hanno dato il consenso ai realizzatori per la pubblicazione sul sito. Di conseguenza, tutto il materiale pubblicato, per il fatto stesso che dev'essere utilizzato per soli scopi di studio e valutazione, non può essere definito illegale ma di libero utilizzo, quindi non viola gli art.615, 615 quater e 623 del Codice Penale; anche i Provider e gli ISP che ospitano tale materiale sono da ritenersi liberi da qualsiasi procedimento giudiziario. Poiché alcuni contenuti e informazioni all'interno della rete Web possono in vario modo violare le leggi vigenti, i realizzatori del sito avvertono l'utente che il download di alcuni file può costituire violazione di diritti d'autore e copyright. Gli autori non si assumono alcuna responsabilità a riguardo ed avvertono l'utente che l'uso che egli fa di tutto ciò che é contenuto su questo sito ricade sotto la sua completa ed esclusiva responsabilità. Scaricando uno qualunque dei files presenti sul sito l'utente concorda in un periodo di valutazione di 24 ore e prima che questo scada dovrà cancellare il file ovunque l'avrà copiato. Queste pagine non sono a scopo di lucro e i files possono essere scaricati solo per la valutazione e lo studio degli stessi.
Entrando in questo sito tutte le avvertenze riportate nel presente testo si ritengono condivise ed accettate in ogni punto, senza alcuna remora.
Chiunque non concordi con quanto suscritto è pregato di chiudere il portale ora e non visualizzare le pagine del presente sito.
Questo server non ospita nessun file ma solo i relativi torrent / metadati.

Per maggiori informazioni si prega di consultare Condizioni Generali di Uso del Sito e il relativo Removal.
Per ogni Domanda/Dubbio/Curiosità/Info si prega di contattare Il Supporto.
Buona Permanenza sul Portale www.ilCorSaRoBlu.org


Premium Membership