click

Sondaggi
Cosa ne pensi del nuovo Server del ilCorSaRoBlu.org












Dettagli Torrent
Pinocchio.2019.iTALiAN.720p.AHDTV.x264-RAMSEiS.mkv.torrent
Pinocchio.2019.iTALiAN.720p.AHDTV.x264-RAMSEiS.mkv.torrentPinocchio.2019.iTALiAN.720p.AHDTV.x264-RAMSEiS.mkv.torrentPinocchio.2019.iTALiAN.720p.AHDTV.x264-RAMSEiS.mkv.torrentPinocchio.2019.iTALiAN.720p.AHDTV.x264-RAMSEiS.mkv.torrent

Pinocchio.2019.iTALiAN.720p.AHDTV.x264-RAMSEiS.mkv.torrent
Nome Pinocchio.2019.iTALiAN.720p.AHDTV.x264-RAMSEiS.mkv.torrent
Torrent Pinocchio.2019.iTALiAN.720p.AHDTV.x264-RAMSEiS.mkv.torrent
Info Hash c90754b4836883bb99b01d3708ba352948020172
Who thanked
Streaming Thor Player (Web)
(Alpha Version)
Rango Premium o V.I.P.
Richiesto,
per questa funzione!

Diventa Premium,
V.I.P. subito!
Donate

Play With Thor Player
Image
Descrizione

TV-P2P
BUCANIERE

Data di registrazione: Lug 2019
Ultima Attività: Oggi alle 00:45:43
 
Post: 2215
Ringraziato: 499334 volte
Paese:
Ringraziato: 499334 volte
Sesso:
La televisione è un’arma di distrazione di massa.
OS:
Windows 10
Browser:
Chrome 80.0.3987.149







Pinocchio (2019 ITA) [720p][DENiED]

« il: 07 Aprile 2020, 21:02:04 »


Annulla ringraziamento


Citazione



Pinocchio


Click this bar to view the full image.
Regista: Matteo Garrone
Genere: Fantasy, Avventura
Anno: 2019
Paese: Italia, Francia
Durata: 120 min
Data di uscita: 19 dicembre 2019
Distribuzione: 01 Distribution
IMDb: tt8333746


Pinocchio, il film diretto da Matteo Garrone, con Roberto Benigni nei panni di Geppetto, è una nuova versione cinematografica della celebre fiaba di Collodi. Molto fedele al romanzo per ragazzi, pubblicato la prima volta nel 1881, il film ripercorre la storia del burattino dal naso lungo, sin dalla sua nascita per mano di Geppetto che ne ha intagliato le fattezze. Un tronco di legno che diventa marionetta e che acquisisce capacità motorie e intellettive, come un qualsiasi bambino in carne e ossa: questo è Pinocchio, anche se la sua carne è la corteccia e le sue ossa sono segatura. Nonostante il suo corpo sia duro come la quercia e la sua testa ancor di più, Geppetto si affeziona a lui come se fosse un bimbo vero, un suo figlio.
Ma il burattino non è il bambino obbediente e studioso che il suo papà falegname sperava. Spinto da un'irrefrenabile curiosità, da un carattere birichino e talvolta ingenuo, Pinocchio si ritroverà spesso nei guai, mettendo in pericolo anche lo stesso Geppetto...
I personaggi e le creature fantastiche del film sono realizzati all'insegna di uno straordinario realismo,combinando trucco prostetico ed effetti digitali grazie al talento del due volte premio Oscar per il Miglior Trucco Mark Coulier e della VFX Supervisor Rachael Penfold.
Spoiler (hover to show)

Spoiler (hover to show)
Complete name               : Pinocchio.2019.iTALiAN.DD5.1.AHDTV.x264-DENiED.mkv
Format                      : Matroska
Format version              : Version 4
File size                   : 1.56 GiB
Duration                    : 1 h 59 min
Overall bit rate            : 1 863 kb/s
Movie name                  : Pinocchio.2019.iTALiAN.DD5.1.AHDTV.x264-DENiED
Encoded date                : UTC 2020-04-06 21:53:15
Writing application         : mkvmerge v45.0.0 ('Heaven in Pennies') 64-bit
Writing library             : libebml v1.3.10 + libmatroska v1.5.2

Video
ID                          : 1
Format                      : AVC
Format/Info                 : Advanced Video Codec
Format profile              : High@L4.1
Format settings             : CABAC / 1 Ref Frames
Format settings, CABAC      : Yes
Format settings, Reference  : 1 frame
Codec ID                    : V_MPEG4/ISO/AVC
Duration                    : 1 h 59 min
Bit rate                    : 1 540 kb/s
Width                       : 720 pixels
Height                      : 302 pixels
Display aspect ratio        : 2.40:1
Frame rate mode             : Constant
Frame rate                  : 25.000 FPS
Color space                 : YUV
Chroma subsampling          : 4:2:0
Bit depth                   : 8 bits
Scan type                   : Progressive
Bits/(Pixel*Frame)          : 0.283
Stream size                 : 1.29 GiB (83%)
Title                       : HDTV
Writing library             : x264 core 157 r2935 545de2f
Encoding settings           : cabac=1 / ref=1 / deblock=1:-2:-2 / analyse=0x3:0x113 / me=hex / subme=6 / psy=1 / psy_rd=1.00:0.00 / mixed_ref=0 / me_range=16 / chroma_me=1 / trellis=1 / 8x8dct=1 / cqm=0 / deadzone=21,11 / fast_pskip=0 / chroma_qp_offset=-2 / threads=9 / lookahead_threads=1 / sliced_threads=0 / nr=0 / decimate=0 / interlaced=0 / bluray_compat=0 / constrained_intra=0 / bframes=0 / weightp=1 / keyint=12 / keyint_min=1 / scenecut=40 / intra_refresh=0 / rc_lookahead=30 / rc=crf / mbtree=1 / crf=19.0 / qcomp=0.80 / qpmin=0 / qpmax=69 / qpstep=4 / vbv_maxrate=62500 / vbv_bufsize=78125 / crf_max=0.0 / nal_hrd=none / filler=0 / ip_ratio=1.40 / aq=1:0.50
Default                     : Yes
Forced                      : No
Color range                 : Limited
Color primaries             : BT.709
Transfer characteristics    : BT.709
Matrix coefficients         : BT.709

Audio
ID                          : 2
Format                      : AC-3
Format/Info                 : Audio Coding 3
Commercial name             : Dolby Digital
Codec ID                    : A_AC3
Duration                    : 1 h 59 min
Bit rate mode               : Constant
Bit rate                    : 320 kb/s
Channel(s)                  : 6 channels
Channel layout              : L R C LFE Ls Rs
Sampling rate               : 48.0 kHz
Frame rate                  : 31.250 FPS (1536 SPF)
Compression mode            : Lossy
Stream size                 : 275 MiB (17%)
Title                       : DD5.1
Language                    : Italian
Service kind                : Complete Main
Default                     : Yes
Forced                      : Yes


Contenuto nascosto visualizzato:
Pinocchio.2019.iTALiAN.720p.AHDTV.x264-RAMSEiS.mkv


CREDITI DENiED


Connesso


INFO | RICHIESTE | RESEED | ALTRO
MANDATE UN MP
 

Screenshots         
Categoria 720p
Dimensione 2.36 GB
Data 11/01/2021
Uploader Inviato come anonimo
Nodi
Distributori: 5, Ricettori: 0 = 5 Nodi, Down = 3 volte
Report Torrent
Similar torrents
Name Added Size Seeders Leechers
Carlo Collodi - Pinocchio 20/11/2009 25.32 MB 213 23
Le favole Disney - Pinocchio 29/03/2006 1.66 MB 203 43
Pinocchio 08/12/2008 1.52 GB 197 70
Le Avventure di Pinocchio (1972) Edizione Speciale 21/12/2009 14.80 GB 189 33
Le Avventure Di Pinocchio S01e01-05 07/09/2017 2.68 GB 182 28
Fiorenzo Carpi e Bruno Nicolai - Le avventure di Pinocchio OST (1993) 28/04/2014 113.41 MB 181 86
Carmelo Bene - Pinocchio 29/12/2007 510.15 MB 180 80
Leif GW Persson - La vera storia del naso di Pinocchio 11/01/2016 2.07 MB 174 67
Pinocchio (1992) 16/03/2018 2.73 GB 172 19
Le Avventure Di Pinocchio (1972) 14/11/2008 1.19 GB 169 83
Aggiorna
Ultimo aggiornamento 13/06/2020 22:39:27 (13/06/2020 22:39:27)


Utente
Commento:
smile1.gif wink.gif grin.gif tongue.gif sad.gif cry.gif noexpression.gif confused.gif ohmy.gif cool1.gif angel.gif sleep.gif angry.gif smile2.gif laugh.gif cool2.gif
Altre Emoticon
   



Supportaci
Supporta lo sviluppo e manutenzione del portale ~ Support portal development and maintenance ~ ilCorSaRoBlu.org Say Thank You!
 
Donazioni questo mese: 169%

Obbiettivo: €100
Fino a: 31/01/21
Ultimi Donatori
Donatore: Data:
V.I.P.tulbin73💗25/01/2021
M***ia Bar***i*i23/01/2021
V.I.P.doctoreffe💗22/01/2021
V.I.P.BigSteven💗22/01/2021
V.I.P.Reinhart💗22/01/2021

click

I nostri partner
            

Site Disclaimer

www.ilCorSaRoBlu.org - Site Disclaimer

Coloro che hanno realizzato il sito (www.ilCorSaRoBlu.org) si dissociano dalle eventuali violazioni della legge n.633 del 22 aprile 1941 e successive modifiche sul diritto d' autore, specie nell'art. 172. Il materiale pubblicato è di proprietà dei rispettivi autori, i quali, tacitamente o non, hanno dato il consenso ai realizzatori per la pubblicazione sul sito. Di conseguenza, tutto il materiale pubblicato, per il fatto stesso che dev'essere utilizzato per soli scopi di studio e valutazione, non può essere definito illegale ma di libero utilizzo, quindi non viola gli art.615, 615 quater e 623 del Codice Penale; anche i Provider e gli ISP che ospitano tale materiale sono da ritenersi liberi da qualsiasi procedimento giudiziario. Poiché alcuni contenuti e informazioni all'interno della rete Web possono in vario modo violare le leggi vigenti, i realizzatori del sito avvertono l'utente che il download di alcuni file può costituire violazione di diritti d'autore e copyright. Gli autori non si assumono alcuna responsabilità a riguardo ed avvertono l'utente che l'uso che egli fa di tutto ciò che é contenuto su questo sito ricade sotto la sua completa ed esclusiva responsabilità. Scaricando uno qualunque dei files presenti sul sito l'utente concorda in un periodo di valutazione di 24 ore e prima che questo scada dovrà cancellare il file ovunque l'avrà copiato. Queste pagine non sono a scopo di lucro e i files possono essere scaricati solo per la valutazione e lo studio degli stessi.
Entrando in questo sito tutte le avvertenze riportate nel presente testo si ritengono condivise ed accettate in ogni punto, senza alcuna remora.
Chiunque non concordi con quanto suscritto è pregato di chiudere il portale ora e non visualizzare le pagine del presente sito.
Questo server non ospita nessun file ma solo i relativi torrent / metadati.

Per maggiori informazioni si prega di consultare Condizioni Generali di Uso del Sito e il relativo Removal.
Per ogni Domanda/Dubbio/Curiosità/Info si prega di contattare Il Supporto.
Buona Permanenza sul Portale www.ilCorSaRoBlu.org


Premium Membership