click

Sondaggi
Cosa ne pensi del nuovo Server del ilCorSaRoBlu.org













Dettagli Torrent
Phil
PhilPhilPhilPhil

Phil
Nome Phil Collins - 1996 - Dance Into The Light [CdS].torrent
Torrent Phil Collins - 1996 - Dance Into The Light [CdS].torrent
Info Hash 3ab8933b6bb4ac3e330cbcc1401af3614f96d683
Who thanked
Streaming Thor Player (Web)
(Alpha Version)
Rango Premium o V.I.P.
Richiesto,
per questa funzione!

Diventa Premium,
V.I.P. subito!
Donate

Play With Thor Player
Image
Descrizione

caraibbo
FILIBUSTIERE

Data di registrazione: Feb 2016
Age: 50
Ultima Attività: 15 Giugno 2020, 17:07:42
 
Post: 335
Ringraziato: 16130 volte
Paese:
Ringraziato: 16130 volte
Sesso:
OS:
Windows 10
Browser:
Firefox 76.0







Phil Collins - Dance Into The Light (1996 - Pop) [Flac]

« il: 31 Maggio 2020, 10:33:45 »


Annulla ringraziamento


Citazione


PHIL COLLINS

-

DANCE INTO THE LIGHT

This image has been resized. Click this bar to view the full image. The original image is sized 600x600.


.: Dati Album :.


Titolo:  Phil Collins - Dance Into The Light [CdS]
Anno:   1996
Genere:  Pop
Etichetta:  Virgin
Formato: EAC V1.0 beta 1 (secure mode) |FLAC+CUE+LOG+COVERS| 89.8 Mb



01. Dance Into The Light
02. Take Me Down
03. It's Over (Home Demo)




Dance into the Light è un singolo del cantante britannico Phil Collins, pubblicato nel 1996 ed estratto dall'album omonimo.


Log File


Spoiler:  (hover to show)

Exact Audio Copy V0.99 prebeta 5 from 4. May 2009

EAC extraction logfile from 21. January 2010, 8:43

Phil Collins / Dance Into The Light

Used drive  : HL-DT-STDVDRAM_GSA-T20N   Adapter: 0  ID: 0

Read mode               : Secure
Utilize accurate stream : Yes
Defeat audio cache      : Yes
Make use of C2 pointers : No

Read offset correction                      : 667
Overread into Lead-In and Lead-Out          : No
Fill up missing offset samples with silence : Yes
Delete leading and trailing silent blocks   : No
Null samples used in CRC calculations       : Yes
Used interface                              : Native Win32 interface for Win NT & 2000

Used output format              : User Defined Encoder
Selected bitrate                : 768 kBit/s
Quality                         : High
Add ID3 tag                     : No
Command line compressor         : C:Program FilesExact Audio CopyFlacflac.exe
Additional command line options : -6 -V -T "ARTIST=%a" -T "TITLE=%t" -T "ALBUM=%g" -T ";DATE=%y" -T "TRACKNUMBER=%n" -T "GENRE=%m" -T "COMMENT=%e" %s -o %d


TOC of the extracted CD

    Track |   Start  |  Length  | Start sector | End sector
   ---------------------------------------------------------
       1  |  0:00.00 |  4:26.40 |         0    |    19989  
       2  |  4:26.40 |  3:29.62 |     19990    |    35726  
       3  |  7:56.27 |  4:22.50 |     35727    |    55426  


Range status and errors

Selected range

    Filename D:MusicNeil DiamondPhil Collins - Dance Into The Light.wav

    Peak level 99.1 %
    Range quality 100.0 %
    Test CRC 02DD3F25
    Copy CRC 02DD3F25
    Copy OK

No errors occurred


AccurateRip summary

Track  1  accurately ripped (confidence 8)  [781AF205]
Track  2  accurately ripped (confidence 8)  [C3D33EC3]
Track  3  accurately ripped (confidence 8)  [FDC8CD12]

All tracks accurately ripped

End of status report
Cue File


Spoiler:  (hover to show)

REM GENRE Pop
REM DATE 1996
REM DISCID 2502E303
REM COMMENT "ExactAudioCopy v0.99pb5"
PERFORMER "Phil Collins"
TITLE ";Dance Into The Light"
FILE "Phil Collins - Dance Into The Light.flac" WAVE
 TRACK 01 AUDIO
   TITLE ";Dance Into The Light"
   PERFORMER "Phil Collins"
   INDEX 01 00:00:00
 TRACK 02 AUDIO
   TITLE "Take Me Down"
   PERFORMER "Phil Collins"
   INDEX 00 04:23:60
   INDEX 01 04:26:40
 TRACK 03 AUDIO
   TITLE "It's Over (Home Demo)"
   PERFORMER "Phil Collins"
   INDEX 00 07:53:45
   INDEX 01 07:56:27
Contenuto nascosto visualizzato:
Phil Collins - 1996 - Dance Into The Light [CdS]


IL MIO PROGETTO MUSICALE


Connesso
 

Screenshots         
Categoria Other
Dimensione 89.85 MB
Data 15/11/2020
Uploader Inviato come anonimo
Nodi
Distributori: 1, Ricettori: 0 = 1 Nodi, Down = 0 volte
Report Torrent
Similar torrents
Name Added Size Seeders Leechers
Phil Collins - ...Hits 04/07/2020 478.15 MB 199 81
Phil Collins - Serious Hits Live (2003) DVD 2 02/01/2017 7.29 GB 175 48
Phil Collins - Serious Hits... Live 11/06/2006 176.04 MB 162 16
Phil Collins - Solo discography 1981-2006 04/10/2010 4.29 GB 150 63
Phil Collins - Serious Hits Live (2003) DVD 1 31/12/2016 7.58 GB 150 71
Phil Collins - Love Songs (2Cd) (2004) 22/01/2007 738.92 MB 99 91
Phil Collins - Discography (1981-2010) [FLAC].torrent 27/04/2020 7.44 GB 87 97
Phil Collins - Testify (2002) 25/10/2020 144.52 MB 79 43
Phil Collins - Live At Montreux (2012) [DVD9 NTSC] (2 DVD9 NTSC).1.torrent 12/02/2018 14.15 GB 43 8
Phil Collins - Singles Collection.torrent.icb.torrent 24/08/2018 2.05 GB 42 21
Aggiorna
Ultimo aggiornamento 29/11/2020 19:02:48 (29/11/2020 19:02:48)


Utente
Commento:
smile1.gif wink.gif grin.gif tongue.gif sad.gif cry.gif noexpression.gif confused.gif ohmy.gif cool1.gif angel.gif sleep.gif angry.gif smile2.gif laugh.gif cool2.gif
Altre Emoticon
   



Supportaci
Supporta lo sviluppo e manutenzione del portale ~ Support portal development and maintenance ~ ilCorSaRoBlu.org Say Thank You!
 
Donazioni questo mese: 177%

Obbiettivo: €100
Fino a: 30/11/20
Ultimi Donatori
Donatore: Data:
🏆 fantasmino67 29/11/2020
V.I.P.teddyboy💗27/11/2020
V.I.P.salazar43💗25/11/2020
V.I.P.robina💗19/11/2020
V.I.P.carlos1956💗18/11/2020

click

I nostri partner
            

Site Disclaimer

www.ilCorSaRoBlu.org - Site Disclaimer

Coloro che hanno realizzato il sito (www.ilCorSaRoBlu.org) si dissociano dalle eventuali violazioni della legge n.633 del 22 aprile 1941 e successive modifiche sul diritto d' autore, specie nell'art. 172. Il materiale pubblicato è di proprietà dei rispettivi autori, i quali, tacitamente o non, hanno dato il consenso ai realizzatori per la pubblicazione sul sito. Di conseguenza, tutto il materiale pubblicato, per il fatto stesso che dev'essere utilizzato per soli scopi di studio e valutazione, non può essere definito illegale ma di libero utilizzo, quindi non viola gli art.615, 615 quater e 623 del Codice Penale; anche i Provider e gli ISP che ospitano tale materiale sono da ritenersi liberi da qualsiasi procedimento giudiziario. Poiché alcuni contenuti e informazioni all'interno della rete Web possono in vario modo violare le leggi vigenti, i realizzatori del sito avvertono l'utente che il download di alcuni file può costituire violazione di diritti d'autore e copyright. Gli autori non si assumono alcuna responsabilità a riguardo ed avvertono l'utente che l'uso che egli fa di tutto ciò che é contenuto su questo sito ricade sotto la sua completa ed esclusiva responsabilità. Scaricando uno qualunque dei files presenti sul sito l'utente concorda in un periodo di valutazione di 24 ore e prima che questo scada dovrà cancellare il file ovunque l'avrà copiato. Queste pagine non sono a scopo di lucro e i files possono essere scaricati solo per la valutazione e lo studio degli stessi.
Entrando in questo sito tutte le avvertenze riportate nel presente testo si ritengono condivise ed accettate in ogni punto, senza alcuna remora.
Chiunque non concordi con quanto suscritto è pregato di chiudere il portale ora e non visualizzare le pagine del presente sito.
Questo server non ospita nessun file ma solo i relativi torrent / metadati.

Per maggiori informazioni si prega di consultare Condizioni Generali di Uso del Sito e il relativo Removal.
Per ogni Domanda/Dubbio/Curiosità/Info si prega di contattare Il Supporto.
Buona Permanenza sul Portale www.ilCorSaRoBlu.org


Premium Membership