click

Sondaggi
Cosa ne pensi del nuovo Server del ilCorSaRoBlu.org












Dettagli Torrent
Mortdecai
MortdecaiMortdecaiMortdecaiMortdecai

Mortdecai

Nome Mortdecai (2015).ita.eng.sub.ita.eng.MIRCrew.torrent
Torrent Mortdecai (2015).ita.eng.sub.ita.eng.MIRCrew.torrent
Info Hash 05a09f0fc32f351a6ff8d357507885e12692ba4f
Who thanked
Streaming Thor Player (Web)
(Alpha Version)
Rango Premium o V.I.P.
Richiesto,
per questa funzione!

Diventa Premium,
V.I.P. subito!
Donate

Play With Thor Player
Image
Descrizione






Mortdecai (2015).BDrip.XviD - Italian English.Ac3.5.1.Sub.ita.MIRCrew


NO FOUND ONLY ORIGINAL RELEASE

Mortdecai

(2015)

 
Titolo originale    Mortdecai
Lingua originale    inglese
Paese di produzione    Stati Uniti d'America
Anno    2015
Durata    107 min
Rapporto    2,35:1
Genere    azione, commedia, thriller, crimine, spionaggio
Regia    ;David Koepp
Soggetto    Kyril Bonfiglioli
Sceneggiatura    Eric Aronson
Produttore    Christi Dembrowski, Johnny Depp, Andrew Lazar, Gigi Pritzker
Produttore esecutivo    Patrick McCormick, Sam Sarkar
Casa di produzione    Huayi Brothers Media, Infinitum Nihil, Mad Chance Productions, Odd Lot Entertainment
Distribuzione (Italia)    Adler Entertainment
Fotografia    Florian Hoffmeister
Montaggio    Jill Savitt, Derek Ambrosi
Effetti speciali    Neil Reynolds, Neil Toddy Todd
Musiche    Mark Ronson, Geoff Zanelli
Scenografia    James Merifield
Costumi    Ruth Myers
Trucco    Helen Barrett, Sarah Grispo, Jutta Russell

   Johnny Depp: Charles Mortdecai
   Ewan McGregor: Ispettore Martland
   Gwyneth Paltrow: Johanna Mortdecai
   Paul Bettany: Jock Strapp
   Olivia Munn: Georgina Krampf
   Jeff Goldblum: Milton Krampf
   Michael Byrne: Duca di Asherboroughdon
   Jonny Pasvolsky: Emil
   Michael Culkin: Sir Graham

 
.

Charles Mortdecai ha fama di grande intrallazzatore, la sua specialità sono le opere d'arte di dubbia provenienza che rivende a personaggi a volte molto equivoci. A causa di un enorme debito col fisco inglese, è costretto dall'MI5 ad indagare sulla morte di una restauratrice di quadri e sulla sparizione di un prezioso dipinto di Goya. La missione si rivela subito molto pericolosa,........
Juggling angry Russians, the British Mi5, and an international terrorist, debonair art dealer and part time rogue Charlie Mortdecai races to recover a stolen painting rumored to contain a code that leads to lost Nazi gold................
Spoiler (hover to show)
General
Complete name                            : Mortdecai (2015).ita.eng.sub.ita.eng.MIRCrewMortdecai (2015).ita.eng.sub.ita.eng.MIRCrew.avi
Format                                   : AVI
Format/Info                              : Audio Video Interleave
File size                                : 1.89 GiB
Duration                                 : 1h 46mn
Overall bit rate                         : 2 540 Kbps
Movie name                               : MIRcrew ENCODED For ilcorsaroverde.altervista.org
Writing application                      : VirtualDubMod 1.5.10.2 (build 2540/release)
Writing library                          : VirtualDubMod build 2540/release

Video
ID                                       : 0
Format                                   : MPEG-4 Visual
Format profile                           : Simple@L3
Format settings, BVOP                    : No
Format settings, QPel                    : No
Format settings, GMC                     : No warppoints
Format settings, Matrix                  : Default (H.263)
Codec ID                                 : XVID
Codec ID/Hint                            : XviD
Duration                                 : 1h 46mn
Bit rate                                 : 1 502 Kbps
Width                                    : 720 pixels
Height                                   : 300 pixels
Display aspect ratio                     : 2.40:1
Frame rate                               : 23.976 fps
Color space                              : YUV
Chroma subsampling                       : 4:2:0
Bit depth                                : 8 bits
Scan type                                : Progressive
Compression mode                         : Lossy
Bits/(Pixel*Frame)                       : 0.290
Stream size                              : 1.12 GiB (59%)
Writing library                          : XviD 64

Audio #1
ID                                       : 1
Format                                   : AC-3
Format/Info                              : Audio Coding 3
Mode extension                           : CM (complete main)
Codec ID                                 : 2000
Duration                                 : 1h 46mn
Bit rate mode                            : Constant
Bit rate                                 : 512 Kbps
Channel(s)                               : 6 channels
Channel positions                        : Front: L C R, Side: L R, LFE
Sampling rate                            : 48.0 KHz
Bit depth                                : 16 bits
Compression mode                         : Lossy
Stream size                              : 391 MiB (20%)
Alignment                                : Split accross interleaves
Interleave, duration                     : 42 ms (1.00 video frame)
Interleave, preload duration             : 500 ms

Audio #2
ID                                       : 2
Format                                   : AC-3
Format/Info                              : Audio Coding 3
Mode extension                           : CM (complete main)
Codec ID                                 : 2000
Duration                                 : 1h 46mn
Bit rate mode                            : Constant
Bit rate                                 : 512 Kbps
Channel(s)                               : 6 channels
Channel positions                        : Front: L C R, Side: L R, LFE
Sampling rate                            : 48.0 KHz
Bit depth                                : 16 bits
Compression mode                         : Lossy
Stream size                              : 391 MiB (20%)
Alignment                                : Split accross interleaves
Interleave, duration                     : 42 ms (1.00 video frame)
Interleave, preload duration             : 500 ms

FILMOGRAFIE

Gwyneth Paltrow  -   Johnny Deep
Mortdecai (2015).BDrip.XviD - Italian English.Ac3.5.1.Sub.ita.EngMIRCrew
« Ultima modifica: 25 Settembre 2017, 06:51:08 da NATODINUOVO »

Connesso
 





Screenshots         
Categoria Other
Dimensione 1.89 GB
Data 04/09/2020
Uploader Inviato come anonimo
Nodi
Distributori: 13, Ricettori: 9 = 22 Nodi, Down = 0 volte
Report Torrent
Similar torrents
Name Added Size Seeders Leechers
Kyril Bonfiglioli - Mortdecai e il delitto perfetto 09/03/2017 934.40 KB 216 17
Kyril Bonfiglioli - Mortdecai 19/02/2016 1.18 MB 200 60
Mortdecai.2015.DTS.ITA.ENG.1080p.BluRay.x264-BLUWORLD.mkv.torrent.icb.torrent 16/07/2018 8.09 GB 106 68
Kyril Bonfiglioli - Mortdecai e qualcosa di orribile nella legnaia 22/09/2016 1.57 MB 93 23
Kyril Bonfiglioli - Mortdecai e il complotto del secolo 12/05/2016 1.04 MB 87 79
Mortdecai (2015) 18/02/2016 1.37 GB 87 64
Mortdecai-(Koepp-2015)-By_PAPERINIK-[DVD9-1-1].torrent 10/04/2018 7.81 GB 11 7
Mortdecai 2015.torrent.icb.torrent 17/06/2019 1.72 GB 4 8
Mortdecai (2015) [1080p].torrent 15/08/2020 1.65 GB 1 0
Aggiorna
Ultimo aggiornamento 27/09/2020 20:19:12 (27/09/2020 20:19:12)


Utente
Commento:
smile1.gif wink.gif grin.gif tongue.gif sad.gif cry.gif noexpression.gif confused.gif ohmy.gif cool1.gif angel.gif sleep.gif angry.gif smile2.gif laugh.gif cool2.gif
Altre Emoticon
   



Supportaci
Supporta lo sviluppo e manutenzione del portale ~ Support portal development and maintenance ~ ilCorSaRoBlu.org Say Thank You!
 
Donazioni questo mese: 35%

Obbiettivo: €100
Fino a: 30/09/20
Ultimi Donatori
Donatore: Data:
V.I.P.Sobrepin💗26/09/2020
V.I.P.brukilde💗23/09/2020
V.I.P.tangram57💗18/09/2020
V.I.P.Michele92💗15/09/2020
V.I.P.danielcr💗10/09/2020

click

I nostri partner
            

Site Disclaimer

www.ilCorSaRoBlu.org - Site Disclaimer

Coloro che hanno realizzato il sito (www.ilCorSaRoBlu.org) si dissociano dalle eventuali violazioni della legge n.633 del 22 aprile 1941 e successive modifiche sul diritto d' autore, specie nell'art. 172. Il materiale pubblicato è di proprietà dei rispettivi autori, i quali, tacitamente o non, hanno dato il consenso ai realizzatori per la pubblicazione sul sito. Di conseguenza, tutto il materiale pubblicato, per il fatto stesso che dev'essere utilizzato per soli scopi di studio e valutazione, non può essere definito illegale ma di libero utilizzo, quindi non viola gli art.615, 615 quater e 623 del Codice Penale; anche i Provider e gli ISP che ospitano tale materiale sono da ritenersi liberi da qualsiasi procedimento giudiziario. Poiché alcuni contenuti e informazioni all'interno della rete Web possono in vario modo violare le leggi vigenti, i realizzatori del sito avvertono l'utente che il download di alcuni file può costituire violazione di diritti d'autore e copyright. Gli autori non si assumono alcuna responsabilità a riguardo ed avvertono l'utente che l'uso che egli fa di tutto ciò che é contenuto su questo sito ricade sotto la sua completa ed esclusiva responsabilità. Scaricando uno qualunque dei files presenti sul sito l'utente concorda in un periodo di valutazione di 24 ore e prima che questo scada dovrà cancellare il file ovunque l'avrà copiato. Queste pagine non sono a scopo di lucro e i files possono essere scaricati solo per la valutazione e lo studio degli stessi.
Entrando in questo sito tutte le avvertenze riportate nel presente testo si ritengono condivise ed accettate in ogni punto, senza alcuna remora.
Chiunque non concordi con quanto suscritto è pregato di chiudere il portale ora e non visualizzare le pagine del presente sito.
Questo server non ospita nessun file ma solo i relativi torrent / metadati.

Per maggiori informazioni si prega di consultare Condizioni Generali di Uso del Sito e il relativo Removal.
Per ogni Domanda/Dubbio/Curiosità/Info si prega di contattare Il Supporto.
Buona Permanenza sul Portale www.ilCorSaRoBlu.org


Premium Membership