click

Sondaggi
Cosa ne pensi del nuovo Server del ilCorSaRoBlu.org













Dettagli Torrent
La
LaLaLaLa

La
Nome La grande scommessa - The Big Short (2015).ita.eng.sub.ita.eng.iCV-MIRCrew.torrent
Torrent La grande scommessa - The Big Short (2015).ita.eng.sub.ita.eng.iCV-MIRCrew.torrent
Info Hash 62549fb9d597e5043a744f07da2e6aa9d1708a39
Who thanked
Streaming Thor Player (Web)
(Alpha Version)
Rango Premium o V.I.P.
Richiesto,
per questa funzione!

Diventa Premium,
V.I.P. subito!
Donate

Play With Thor Player
Image
Descrizione



The Big Short - La grande scommessa (2015).BRrip.XviD - Italian.English.Ac3.5.1.Sub.ita.eng.iCV-MIRCrew

NO FOUND ONLY ORIGINAL RELEASE

My release is always in double track audio italian and Original audio
for select it use VLC or dvd player home
not use wmp

La grande scommessa

The Big Short

(2015)

Titolo originale    The Big Short
Lingua originale    inglese
Paese di produzione    USA
Anno    2015
Durata    130 min
Genere    biografico, commedia, drammatico
Regia    Adam McKay
Soggetto    Michael Lewis
Sceneggiatura    Adam McKay, Charles Randolph
Produttore    ;Dede Gardner, Brad Pitt, Jeremy Kleiner, Arnon Milchan
Casa di produzione    Plan B Entertainment
Regency Enterprises
Distribuzione (Italia)    Universal Pictures
Fotografia    Barry Ackroyd
Montaggio    Hank Corwin
Musiche    Nicholas Britell
Scenografia    Clayton Hartley
Christian Bale: Michael Burry
Steve Carell: Mark Baum
Ryan Gosling: Jared Vennett
Brad Pitt: Ben Rickert
Melissa Leo: Georgia Hale
Finn Wittrock: Jamie Shipley
Hamish Linklater: Porter Collins
John Magaro: Charlie Geller
Rafe Spall: Danny Moses
Jeremy Strong: Vinnie Daniel
Marisa Tomei: Cynthia Baum
Stanley Wong: Ted Jiang
ecc..............

 


Il film, ispirato ad eventi e personaggi reali, segue le storie simultanee di tre gruppi di persone che hanno scoperto le basi per la crisi finanziaria del 2007-2010 e riescono a ricavarne enormi profitti..........
Four denizens in the world of high-finance predict the credit and housing bubble collapse of the mid-2000s, and decide to take on the big banks for their greed and lack of foresight. ........

FILMOGRAFIE

Brad Pitt  

 


Spoiler (hover to show)
General
Complete name                            : La grande scommessa - The Big Short (2015).ita.eng.sub.ita.eng.iCV-MIRCrew.avi
Format                                   : AVI
Format/Info                              : Audio Video Interleave
Format profile                           : OpenDML
File size                                : 2.20 GiB
Duration                                 : 2h 10mn
Overall bit rate                         : 2 413 Kbps
Movie name                               : www.icv-crew.org
Writing application                      : VirtualDubMod 1.5.10.2 (build 2540/release)
Writing library                          : VirtualDubMod build 2540/release

Video
ID                                       : 0
Format                                   : MPEG-4 Visual
Format profile                           : [email protected]
Format settings, BVOP                    : No
Format settings, QPel                    : No
Format settings, GMC                     : No warppoints
Format settings, Matrix                  : Default (H.263)
Codec ID                                 : XVID
Codec ID/Hint                            : XviD
Duration                                 : 2h 10mn
Bit rate                                 : 1 499 Kbps
Width                                    : 720 pixels
Height                                   : 300 pixels
Display aspect ratio                     : 2.40:1
Frame rate                               : 23.976 fps
Color space                              : YUV
Chroma subsampling                       : 4:2:0
Bit depth                                : 8 bits
Scan type                                : Progressive
Compression mode                         : Lossy
Bits/(Pixel*Frame)                       : 0.290
Stream size                              : 1.36 GiB (62%)
Writing library                          : XviD 64

Audio #1
ID                                       : 1
Format                                   : AC-3
Format/Info                              : Audio Coding 3
Mode extension                           : CM (complete main)
Codec ID                                 : 2000
Duration                                 : 2h 10mn
Bit rate mode                            : Constant
Bit rate                                 : 448 Kbps
Channel(s)                               : 6 channels
Channel positions                        : Front: L C R, Side: L R, LFE
Sampling rate                            : 48.0 KHz
Bit depth                                : 16 bits
Compression mode                         : Lossy
Stream size                              : 417 MiB (19%)
Alignment                                : Split accross interleaves
Interleave, duration                     : 42 ms (1.00 video frame)
Interleave, preload duration             : 500 ms

Audio #2
ID                                       : 2
Format                                   : AC-3
Format/Info                              : Audio Coding 3
Mode extension                           : CM (complete main)
Codec ID                                 : 2000
Duration                                 : 2h 10mn
Bit rate mode                            : Constant
Bit rate                                 : 448 Kbps
Channel(s)                               : 6 channels
Channel positions                        : Front: L C R, Side: L R, LFE
Sampling rate                            : 48.0 KHz
Bit depth                                : 16 bits
Compression mode                         : Lossy
Stream size                              : 417 MiB (19%)
Alignment                                : Split accross interleaves
Interleave, duration                     : 42 ms (1.00 video frame)
Interleave, preload duration             : 500 ms
Contenuto nascosto visualizzato:
La grande scommessa (2015).BRrip.XviD - Italian.English.Ac3.5.1.Sub.ita.eng.iCV-MIRCrew
« Ultima modifica: 22 Settembre 2017, 11:37:43 da NATODINUOVO »

Connesso
 

Screenshots         
Categoria Other
Dimensione 2.20 GB
Data 11/02/2021
Uploader Inviato come anonimo
Nodi
Distributori: 166, Ricettori: 7 = 173 Nodi, Down = 36 volte
Report Torrent
Similar torrents
Name Added Size Seeders Leechers
Dragon ball Z Movie 03 - La grande battaglia per il destino del mondo 26/01/2020 2.19 GB 217 60
AA.VV.La Grande Enciclopedia della Sardegna[10vol] 30/12/2011 52.98 MB 216 27
Rimsky Korsakov - Sheherazade - La Grande Pasqua Russa - Ozawa (1994) 22/12/2008 234.32 MB 215 30
Grandi Storie Tex 30 - La grande invasione 22/07/2017 644.32 MB 215 80
La Grande Storia dellInter - DVD 2 10/08/2009 3.08 GB 214 17
Tex Willer - Albo speciale 06 - La grande rapina 17/04/2012 109.46 MB 214 59
Goldrake - La grande battaglia del disco spaziale 27/01/2020 382.16 MB 214 66
La Grande Guerra (1959) 18/09/2007 10.17 GB 213 32
La Grande Storia Della Ferrari DVD 2 30/05/2011 699.82 MB 212 47
Dario Manfredi - La grande spedizione scientifica di Alessandro Malaspina 01/11/2016 8.68 MB 210 61
Aggiorna
Ultimo aggiornamento 08/03/2021 09:43:47 (08/03/2021 09:43:47)


Utente
Commento:
smile1.gif wink.gif grin.gif tongue.gif sad.gif cry.gif noexpression.gif confused.gif ohmy.gif cool1.gif angel.gif sleep.gif angry.gif smile2.gif laugh.gif cool2.gif
Altre Emoticon
   



Supportaci
Supporta lo sviluppo e manutenzione del portale ~ Support portal development and maintenance ~ ilCorSaRoBlu.org Say Thank You!
 
Donazioni questo mese: 30%

Obbiettivo: €100
Fino a: 31/03/21
Ultimi Donatori
Donatore: Data:
V.I.P.MITO💗06/03/2021
V.I.P.kosmos57💗05/03/2021
V.I.P.MauroPozzoli💗04/03/2021
V.I.P.sudistaincazzata💗03/03/2021
V.I.P.ammonite💗26/02/2021

click

I nostri partner
            

Site Disclaimer

www.ilCorSaRoBlu.org - Site Disclaimer

Coloro che hanno realizzato il sito (www.ilCorSaRoBlu.org) si dissociano dalle eventuali violazioni della legge n.633 del 22 aprile 1941 e successive modifiche sul diritto d' autore, specie nell'art. 172. Il materiale pubblicato è di proprietà dei rispettivi autori, i quali, tacitamente o non, hanno dato il consenso ai realizzatori per la pubblicazione sul sito. Di conseguenza, tutto il materiale pubblicato, per il fatto stesso che dev'essere utilizzato per soli scopi di studio e valutazione, non può essere definito illegale ma di libero utilizzo, quindi non viola gli art.615, 615 quater e 623 del Codice Penale; anche i Provider e gli ISP che ospitano tale materiale sono da ritenersi liberi da qualsiasi procedimento giudiziario. Poiché alcuni contenuti e informazioni all'interno della rete Web possono in vario modo violare le leggi vigenti, i realizzatori del sito avvertono l'utente che il download di alcuni file può costituire violazione di diritti d'autore e copyright. Gli autori non si assumono alcuna responsabilità a riguardo ed avvertono l'utente che l'uso che egli fa di tutto ciò che é contenuto su questo sito ricade sotto la sua completa ed esclusiva responsabilità. Scaricando uno qualunque dei files presenti sul sito l'utente concorda in un periodo di valutazione di 24 ore e prima che questo scada dovrà cancellare il file ovunque l'avrà copiato. Queste pagine non sono a scopo di lucro e i files possono essere scaricati solo per la valutazione e lo studio degli stessi.
Entrando in questo sito tutte le avvertenze riportate nel presente testo si ritengono condivise ed accettate in ogni punto, senza alcuna remora.
Chiunque non concordi con quanto suscritto è pregato di chiudere il portale ora e non visualizzare le pagine del presente sito.
Questo server non ospita nessun file ma solo i relativi torrent / metadati.

Per maggiori informazioni si prega di consultare Condizioni Generali di Uso del Sito e il relativo Removal.
Per ogni Domanda/Dubbio/Curiosità/Info si prega di contattare Il Supporto.
Buona Permanenza sul Portale www.ilCorSaRoBlu.org


Premium Membership