click

Sondaggi
Cosa ne pensi del nuovo Server del ilCorSaRoBlu.org













Dettagli Torrent
La
LaLaLaLa

La
Nome La Spia - A Most Wanted Man (2014).ita.eng.sub.ita.eng.MIRCrew.torrent
Torrent La Spia - A Most Wanted Man (2014).ita.eng.sub.ita.eng.MIRCrew.torrent
Info Hash a66a34476aa7832b9f2cc5cbb4224c0ed957c3a2
Who thanked
Streaming Thor Player (Web)
(Alpha Version)
Rango Premium o V.I.P.
Richiesto,
per questa funzione!

Diventa Premium,
V.I.P. subito!
Donate

Play With Thor Player
Image
Descrizione



A Most Wanted Man - La Spia (2014).BRrip.XviD - Italian English.Ac3 - 5.1 - Sub Ita Eng.MIRCrew

NO FOUND ONLY ORIGINAL RELEASE

La Spia - A Most Wanted Man

(2014)

 
Titolo originale    A Most Wanted Man
Paese di produzione    Regno Unito, USA, Germania
Anno    2014
Durata    121 min
Rapporto    2,35:1
Genere    thriller
Regia    Anton Corbijn
Soggetto    John le Carré
Sceneggiatura    Andrew Bovell
Produttore    Gail Egan, Stephen Cornwell, Malte Grunert, Simon Cornwell, Andrea Calderwood
Produttore esecutivo    Sam Englebardt, William D. Johnson, John le Carré, Tessa Ross
Casa di produzione    Film4, Senator Film, The Ink Factory, Potboiler Productions, Amusement Park Films, Demarest Films
Distribuzione (Italia)    Notorious Pictures
Fotografia    Benoît Delhomme
Montaggio    Claire Simpson
Musiche    Herbert Grönemeyer
Scenografia    Sebastian T. Krawinkel
Costumi    Nicole Fischnaller


   Philip Seymour Hoffman: Günther Bachmann
   Rachel McAdams: Annabel Richter
   Willem Dafoe: Tommy Brue
   Robin Wright: Martha Sullivan
   Grigoriy Dobrygin: Issa Karpov
   ;Daniel Brühl: Max
   Nina Hoss: Erna Frey
   Homayoun Ershadi: dott. Faisal Abdullah
   Mehdi Dehbi: Jamal Abdullah
.

Günther Bachmann è un agente segreto anti-terrorismo con base ad Amburgo. Bachmann deve indagare su un rispettato accademico musulmano che sta appoggiando segretamente delle attività  terroristiche tramite donazioni ad una compagnia di navigazione con sede a Cipro................
A Chechen Muslim illegally immigrates to Hamburg, where he gets caught in the international war on terror.....


Spoiler (hover to show)
General
Complete name                            : La Spia - A Most Wanted Man (2014).ita.eng.sub.ita.eng.MIRCrewLa Spia - A Most Wanted Man (2014).ita.eng.sub.ita.eng.MIRCrew.avi
Format                                   : AVI
Format/Info                              : Audio Video Interleave
Format profile                           : OpenDML
File size                                : 2.07 GiB
Duration                                 : 2h 2mn
Overall bit rate                         : 2 414 Kbps
Movie name                               : MIRCrew by robbyrs
Writing application                      : VirtualDubMod 1.5.10.2 (build 2540/release)
Writing library                          : VirtualDubMod build 2540/release

Video
ID                                       : 0
Format                                   : MPEG-4 Visual
Format profile                           : [email protected]
Format settings, BVOP                    : No
Format settings, QPel                    : No
Format settings, GMC                     : No warppoints
Format settings, Matrix                  : Default (H.263)
Codec ID                                 : XVID
Codec ID/Hint                            : XviD
Duration                                 : 2h 2mn
Bit rate                                 : 1 499 Kbps
Width                                    : 720 pixels
Height                                   : 300 pixels
Display aspect ratio                     : 2.40:1
Frame rate                               : 24.000 fps
Color space                              : YUV
Chroma subsampling                       : 4:2:0
Bit depth                                : 8 bits
Scan type                                : Progressive
Compression mode                         : Lossy
Bits/(Pixel*Frame)                       : 0.289
Stream size                              : 1.28 GiB (62%)
Writing library                          : XviD 64

Audio #1
ID                                       : 1
Format                                   : AC-3
Format/Info                              : Audio Coding 3
Mode extension                           : CM (complete main)
Codec ID                                 : 2000
Duration                                 : 2h 2mn
Bit rate mode                            : Constant
Bit rate                                 : 448 Kbps
Channel(s)                               : 6 channels
Channel positions                        : Front: L C R, Side: L R, LFE
Sampling rate                            : 48.0 KHz
Bit depth                                : 16 bits
Compression mode                         : Lossy
Stream size                              : 393 MiB (19%)
Alignment                                : Split accross interleaves
Interleave, duration                     : 42 ms (1.00 video frame)
Interleave, preload duration             : 500 ms

Audio #2
ID                                       : 2
Format                                   : AC-3
Format/Info                              : Audio Coding 3
Mode extension                           : CM (complete main)
Codec ID                                 : 2000
Duration                                 : 2h 2mn
Bit rate mode                            : Constant
Bit rate                                 : 448 Kbps
Channel(s)                               : 6 channels
Channel positions                        : Front: L C R, Side: L R, LFE
Sampling rate                            : 48.0 KHz
Bit depth                                : 16 bits
Compression mode                         : Lossy
Stream size                              : 393 MiB (19%)
Alignment                                : Split accross interleaves
Interleave, duration                     : 42 ms (1.00 video frame)
Interleave, preload duration             : 500 ms


La Spia - A Most Wanted Man (2014).BRrip.XviD - Italian English.Ac3 - 5.1 - Sub Ita Eng.MIRCrew
« Ultima modifica: 28 Febbraio 2016, 18:14:51 da nicola939 »

Connesso
 

Screenshots         
Categoria Other
Dimensione 2.07 GB
Data 21/02/2021
Uploader Inviato come anonimo
Nodi
Distributori: 38, Ricettori: 12 = 50 Nodi, Down = 4 volte
Report Torrent
Similar torrents
Name Added Size Seeders Leechers
Homeland - Caccia alla spia S02e07 15/03/2013 550.32 MB 208 64
007 La Spia Che Mi Amava 30/10/2011 4.38 GB 205 34
Homeland - Caccia alla spia S02e03 14/02/2013 550.32 MB 205 66
Homeland - Caccia Alla Spia S03e07 19/11/2013 548.30 MB 202 24
Ian Fleming - La spia che mi amava 20/12/2013 5.19 MB 198 78
Homeland - Caccia Alla Spia S03e08 26/11/2013 547.30 MB 197 73
Homeland - Caccia Alla Spia S03e05 05/11/2013 548.30 MB 197 12
Homeland - Caccia Alla Spia S02e12 18/04/2013 549.32 MB 180 43
Homeland - Caccia Alla Spia S03e01-02 17/10/2013 1.08 GB 173 46
Homeland - Caccia alla spia S02e07-12 Versione 720p 18/04/2013 10.58 GB 159 43
Aggiorna
Ultimo aggiornamento 08/03/2021 08:27:43 (08/03/2021 08:27:43)


Utente
Commento:
smile1.gif wink.gif grin.gif tongue.gif sad.gif cry.gif noexpression.gif confused.gif ohmy.gif cool1.gif angel.gif sleep.gif angry.gif smile2.gif laugh.gif cool2.gif
Altre Emoticon
   



Supportaci
Supporta lo sviluppo e manutenzione del portale ~ Support portal development and maintenance ~ ilCorSaRoBlu.org Say Thank You!
 
Donazioni questo mese: 30%

Obbiettivo: €100
Fino a: 31/03/21
Ultimi Donatori
Donatore: Data:
V.I.P.MITO💗06/03/2021
V.I.P.kosmos57💗05/03/2021
V.I.P.MauroPozzoli💗04/03/2021
V.I.P.sudistaincazzata💗03/03/2021
V.I.P.ammonite💗26/02/2021

click

I nostri partner
            

Site Disclaimer

www.ilCorSaRoBlu.org - Site Disclaimer

Coloro che hanno realizzato il sito (www.ilCorSaRoBlu.org) si dissociano dalle eventuali violazioni della legge n.633 del 22 aprile 1941 e successive modifiche sul diritto d' autore, specie nell'art. 172. Il materiale pubblicato è di proprietà dei rispettivi autori, i quali, tacitamente o non, hanno dato il consenso ai realizzatori per la pubblicazione sul sito. Di conseguenza, tutto il materiale pubblicato, per il fatto stesso che dev'essere utilizzato per soli scopi di studio e valutazione, non può essere definito illegale ma di libero utilizzo, quindi non viola gli art.615, 615 quater e 623 del Codice Penale; anche i Provider e gli ISP che ospitano tale materiale sono da ritenersi liberi da qualsiasi procedimento giudiziario. Poiché alcuni contenuti e informazioni all'interno della rete Web possono in vario modo violare le leggi vigenti, i realizzatori del sito avvertono l'utente che il download di alcuni file può costituire violazione di diritti d'autore e copyright. Gli autori non si assumono alcuna responsabilità a riguardo ed avvertono l'utente che l'uso che egli fa di tutto ciò che é contenuto su questo sito ricade sotto la sua completa ed esclusiva responsabilità. Scaricando uno qualunque dei files presenti sul sito l'utente concorda in un periodo di valutazione di 24 ore e prima che questo scada dovrà cancellare il file ovunque l'avrà copiato. Queste pagine non sono a scopo di lucro e i files possono essere scaricati solo per la valutazione e lo studio degli stessi.
Entrando in questo sito tutte le avvertenze riportate nel presente testo si ritengono condivise ed accettate in ogni punto, senza alcuna remora.
Chiunque non concordi con quanto suscritto è pregato di chiudere il portale ora e non visualizzare le pagine del presente sito.
Questo server non ospita nessun file ma solo i relativi torrent / metadati.

Per maggiori informazioni si prega di consultare Condizioni Generali di Uso del Sito e il relativo Removal.
Per ogni Domanda/Dubbio/Curiosità/Info si prega di contattare Il Supporto.
Buona Permanenza sul Portale www.ilCorSaRoBlu.org


Premium Membership