click

Sondaggi
Cosa ne pensi del nuovo Server del ilCorSaRoBlu.org












Dettagli Torrent
Il
IlIlIlIl

Il
Nome Il Ragazzo Della Porta Accanto - The Boy Next Door (2015).ita.eng.sub.ita.MIRCrew.torrent
Torrent Il Ragazzo Della Porta Accanto - The Boy Next Door (2015).ita.eng.sub.ita.MIRCrew.torrent
Info Hash 03e53ebc3950a571305fad337cad4c5c508e1b77
Who thanked
Streaming Thor Player (Web)
(Alpha Version)
Rango Premium o V.I.P.
Richiesto,
per questa funzione!

Diventa Premium,
V.I.P. subito!
Donate

Play With Thor Player
Image
Descrizione



The Boy Next Door - Il Ragazzo Della Porta Accanto (2015)..BRrip.XviD - Italian English.Ac3.5.1.Sub.ita.MIRCrew
NO FOUND ONLY ORIGINAL RELEASE

Il Ragazzo Della Porta Accanto

The Boy Next Door

(2015)
 
Titolo originale    The Boy Next Door
Lingua originale    Inglese
Paese di produzione    Stati Uniti d'America
Anno    2015
Durata    91 min
Genere    thriller
Regia    Rob Cohen
Sceneggiatura    Barbara Curry
Produttore    Jason Blum, Eric Bromberg, Kathleen M. Courtney, Gerald DiNardi, Elaine Goldsmith-Thomas, John Jacobs, Jennifer Lopez, Priscilla Porianda
Produttore esecutivo    Jeanette Brill, Zac Unterman
Distribuzione (Italia)    Universal Pictures
Fotografia    ;David McFarland
Montaggio    Michel Aller
Musiche    Randy Edelman
Scenografia    Lisa Son, Charles Varga
Costumi    Courtney Hoffman


   Jennifer Lopez: Claire Peterson
   Ryan Guzman: Noah Sandborn
   Ian Nelson: Kevin Peterson
   John Corbett: Garrett Peterson
   Kristin Chenoweth: Vicky Lansing
   Lexi Atkins: Allie Callahan
   Hill Harper: Edward Warren
   Jack Wallace: Signor Sandborn
   Adam Hicks: Jason Zimmer
   François Chau: Detective Johnny Chou
   Bailey Chase: Benny
   Kent Avenido: Signor Avenido

 

Claire Peterson ha appena divorziato con il marito che la tradiva, e ora si ritrova a dover gestire il non facile rapporto con il figlio adolescente, che ha scelto di rimanere con lei dopo la divisione dei genitori. Un giorno, nella villa accanto, arriva Noah Sandborn, che si trova in città per assistere un anziano parente in attesa del trapianto del midollo osseo. Ben presto Noah riesce ad entrare nella casa di Claire e a fare sesso con lei per una notte, dalla quale la donna si riprende subito, cercando di dimenticare l'episodio............
When a handsome, charming teenager named Noah (Ryan Guzman) moves in next door, newly separated high-school teacher Claire Peterson (Jennifer Lopez) encourages his friendship and engages in a little bit of harmless (or so she thinks) flirtation. Although Noah spends much of the time hanging out with Claire's son, the teen's attraction to her is palpable..........


FILMOGRAFIE

Jennifer Lopez  
Spoiler (hover to show)
General
Complete name                            : Il Ragazzo Della Porta Accanto - The Boy Next Door (2015).ita.eng.sub.ita.MIRCrewIl Ragazzo Della Porta Accanto - The Boy Next Door (2015).ita.eng.sub.ita.MIRCrew.avi
Format                                   : AVI
Format/Info                              : Audio Video Interleave
File size                                : 1.49 GiB
Duration                                 : 1h 30mn
Overall bit rate                         : 2 359 Kbps
Movie name                               : ENCODED by www.icv-crew.org/forum
Director                                 : MIRCrew by robbyrs
Writing application                      : VirtualDubMod 1.5.10.2 (build 2540/release)
Writing library                          : VirtualDubMod build 2540/release

Video
ID                                       : 0
Format                                   : MPEG-4 Visual
Format profile                           : [email protected]
Format settings, BVOP                    : No
Format settings, QPel                    : No
Format settings, GMC                     : No warppoints
Format settings, Matrix                  : Default (H.263)
Codec ID                                 : XVID
Codec ID/Hint                            : XviD
Duration                                 : 1h 30mn
Bit rate                                 : 1 449 Kbps
Width                                    : 688 pixels
Height                                   : 286 pixels
Display aspect ratio                     : 2.40:1
Frame rate                               : 23.976 fps
Color space                              : YUV
Chroma subsampling                       : 4:2:0
Bit depth                                : 8 bits
Scan type                                : Progressive
Compression mode                         : Lossy
Bits/(Pixel*Frame)                       : 0.307
Stream size                              : 938 MiB (61%)
Writing library                          : XviD 64

Audio #1
ID                                       : 1
Format                                   : AC-3
Format/Info                              : Audio Coding 3
Mode extension                           : CM (complete main)
Codec ID                                 : 2000
Duration                                 : 1h 30mn
Bit rate mode                            : Constant
Bit rate                                 : 448 Kbps
Channel(s)                               : 6 channels
Channel positions                        : Front: L C R, Side: L R, LFE
Sampling rate                            : 48.0 KHz
Bit depth                                : 16 bits
Compression mode                         : Lossy
Stream size                              : 290 MiB (19%)
Alignment                                : Split accross interleaves
Interleave, duration                     : 42 ms (1.00 video frame)
Interleave, preload duration             : 500 ms

Audio #2
ID                                       : 2
Format                                   : AC-3
Format/Info                              : Audio Coding 3
Mode extension                           : CM (complete main)
Codec ID                                 : 2000
Duration                                 : 1h 30mn
Bit rate mode                            : Constant
Bit rate                                 : 448 Kbps
Channel(s)                               : 6 channels
Channel positions                        : Front: L C R, Side: L R, LFE
Sampling rate                            : 48.0 KHz
Bit depth                                : 16 bits
Compression mode                         : Lossy
Stream size                              : 290 MiB (19%)
Alignment                                : Split accross interleaves
Interleave, duration                     : 42 ms (1.00 video frame)
Interleave, preload duration             : 500 ms


Il Ragazzo Della Porta Accanto (2015)..BRrip.XviD - Italian English.Ac3.5.1.Sub.ita.MIRCrew

« Ultima modifica: 19 Settembre 2017, 06:48:16 da NATODINUOVO »

Connesso
 

Screenshots         
Categoria Other
Dimensione 1.49 GB
Data 10/02/2018
Uploader Inviato come anonimo
Nodi
Distributori: 39, Ricettori: 4 = 43 Nodi, Down = 4 volte
Report Torrent
Similar torrents
Name Added Size Seeders Leechers
Il Ragazzo di Campagna 22/05/2011 1.36 GB 217 53
Kyashan Il Ragazzo Androide S01e21-25 10/09/2006 1.48 GB 217 25
RYU Il ragazzo delle caverne s1e1-8 by nikiniki 25/09/2006 3.82 GB 214 26
Kyashan Il Ragazzo Androide S01e06-10 22/07/2006 1.48 GB 214 50
Andy McNab - Il ragazzo soldato 08/09/2017 1.79 MB 198 39
Il ragazzo dal Kimono doro S01e03-04-05 17/04/2018 2.45 GB 190 28
N. Gaiman, M. Reaves - Il ragazzo dei mondi infiniti 05/01/2017 1.57 MB 185 28
Il ragazzo di campagna (1984) 12/01/2006 701.65 MB 184 66
Il ragazzo che gridava al lupo... Mannaro (2010) 11/08/2016 960.07 MB 182 40
Conan il ragazzo del futuro s1e01-04 18/04/2009 7.28 GB 181 15
Aggiorna
Ultimo aggiornamento 20/04/2021 01:14:05 (20/04/2021 01:14:05)


Utente
Commento:
smile1.gif wink.gif grin.gif tongue.gif sad.gif cry.gif noexpression.gif confused.gif ohmy.gif cool1.gif angel.gif sleep.gif angry.gif smile2.gif laugh.gif cool2.gif
Altre Emoticon
   



Supportaci
Supporta lo sviluppo e manutenzione del portale ~ Support portal development and maintenance ~ ilCorSaRoBlu.org Say Thank You!
 
Donazioni questo mese: 73%

Obbiettivo: €100
Fino a: 30/04/21
Ultimi Donatori
Donatore: Data:
V.I.P.FlavioTito💗19/04/2021
V.I.P.antonio57💗18/04/2021
V.I.P.Alex891💗18/04/2021
V.I.P.joker74💗17/04/2021
V.I.P.overaid💗15/04/2021

click

I nostri partner
            

Site Disclaimer

www.ilCorSaRoBlu.org - Site Disclaimer

Coloro che hanno realizzato il sito (www.ilCorSaRoBlu.org) si dissociano dalle eventuali violazioni della legge n.633 del 22 aprile 1941 e successive modifiche sul diritto d' autore, specie nell'art. 172. Il materiale pubblicato è di proprietà dei rispettivi autori, i quali, tacitamente o non, hanno dato il consenso ai realizzatori per la pubblicazione sul sito. Di conseguenza, tutto il materiale pubblicato, per il fatto stesso che dev'essere utilizzato per soli scopi di studio e valutazione, non può essere definito illegale ma di libero utilizzo, quindi non viola gli art.615, 615 quater e 623 del Codice Penale; anche i Provider e gli ISP che ospitano tale materiale sono da ritenersi liberi da qualsiasi procedimento giudiziario. Poiché alcuni contenuti e informazioni all'interno della rete Web possono in vario modo violare le leggi vigenti, i realizzatori del sito avvertono l'utente che il download di alcuni file può costituire violazione di diritti d'autore e copyright. Gli autori non si assumono alcuna responsabilità a riguardo ed avvertono l'utente che l'uso che egli fa di tutto ciò che é contenuto su questo sito ricade sotto la sua completa ed esclusiva responsabilità. Scaricando uno qualunque dei files presenti sul sito l'utente concorda in un periodo di valutazione di 24 ore e prima che questo scada dovrà cancellare il file ovunque l'avrà copiato. Queste pagine non sono a scopo di lucro e i files possono essere scaricati solo per la valutazione e lo studio degli stessi.
Entrando in questo sito tutte le avvertenze riportate nel presente testo si ritengono condivise ed accettate in ogni punto, senza alcuna remora.
Chiunque non concordi con quanto suscritto è pregato di chiudere il portale ora e non visualizzare le pagine del presente sito.
Questo server non ospita nessun file ma solo i relativi torrent / metadati.

Per maggiori informazioni si prega di consultare Condizioni Generali di Uso del Sito e il relativo Removal.
Per ogni Domanda/Dubbio/Curiosità/Info si prega di contattare Il Supporto.
Buona Permanenza sul Portale www.ilCorSaRoBlu.org


Premium Membership