click

Sondaggi
Cosa ne pensi del nuovo Server del ilCorSaRoBlu.org













Dettagli Torrent
Il.Primo.Natale.2019.iTALiAN.1080p.DDP5.1.WEBRip.x264-DENiED.mkv.torrent
Il.Primo.Natale.2019.iTALiAN.1080p.DDP5.1.WEBRip.x264-DENiED.mkv.torrentIl.Primo.Natale.2019.iTALiAN.1080p.DDP5.1.WEBRip.x264-DENiED.mkv.torrentIl.Primo.Natale.2019.iTALiAN.1080p.DDP5.1.WEBRip.x264-DENiED.mkv.torrentIl.Primo.Natale.2019.iTALiAN.1080p.DDP5.1.WEBRip.x264-DENiED.mkv.torrent

Il.Primo.Natale.2019.iTALiAN.1080p.DDP5.1.WEBRip.x264-DENiED.mkv.torrent

Nome Il.Primo.Natale.2019.iTALiAN.1080p.DDP5.1.WEBRip.x264-DENiED.mkv.torrent
Torrent Il.Primo.Natale.2019.iTALiAN.1080p.DDP5.1.WEBRip.x264-DENiED.mkv.torrent
Info Hash a8726bd1d925aa5e7b4def532c93fe828d9f8dc6
Who thanked
Streaming Thor Player (Web)
(Alpha Version)
Rango Premium o V.I.P.
Richiesto,
per questa funzione!

Diventa Premium,
V.I.P. subito!
Donate

Play With Thor Player
Image
Descrizione




TV-P2P
BUCANIERE

Data di registrazione: Lug 2019
Ultima Attività: Oggi alle 00:45:43
 
Post: 2215
Ringraziato: 499376 volte
Paese:
Ringraziato: 499376 volte
Sesso:
La televisione è un’arma di distrazione di massa.
OS:
Windows 10
Browser:
Chrome 80.0.3987.149







Il Primo Natale (2019 ITA) [1080p][DENiED]

« il: 05 Aprile 2020, 20:05:07 »


Annulla ringraziamento


Citazione



Il Primo Natale


Click this bar to view the full image.
Regista: Salvatore Ficarra, Valentino Picone
Genere: Commedia
Anno: 2019
Paese: Italia
Durata: 100 min
Data di uscita: 12 dicembre 2019
Distribuzione: Medusa Film
IMDb: tt10480532


Il Primo Natale, settimo film di Ficarra e Picone, vede protagonisti Salvo e Valentino in due vesti completamente contrapposte: ladro il primo, sacerdote il secondo.
Il palermitano Salvo è un ladro di sacre reliquie, ma non è affatto credente e vede nei suoi santi furti solo un'occasione di arricchimento. Valentino è un prete che esercita nel paesino si*censored* ed è fortemente affascinato dal presepe e dall'incanto che la sacra composizione suscita nei fedeli, tanto da realizzarne uno vivente nella sua parrocchia con una statua al posto di Gesù Bambino. Quando Salvo, mosso dal clamore suscitato dall'iniziativa di don Valentino, decide di rubare la statua, non si aspetta che il suo mondo ateo e quello cristiano si scontreranno in pieno.
Spoiler (hover to show)

This image has been resized. Click this bar to view the full image. The original image is sized 1920x808.

This image has been resized. Click this bar to view the full image. The original image is sized 1920x808.

This image has been resized. Click this bar to view the full image. The original image is sized 1920x808.
Spoiler (hover to show)
Complete name               : Il.Primo.Natale.2019.iTALiAN.1080p.DDP5.1.WEB.x264-DENiED.mkv
Format                      : Matroska
Format version              : Version 4
File size                   : 6.26 GiB
Duration                    : 1 h 39 min
Overall bit rate            : 8 987 kb/s
Movie name                  : Il.Primo.Natale.2019.iTALiAN.1080p.DDP5.1.WEB.x264-DENiED
Encoded date                : UTC 2020-04-04 23:56:55
Writing application         : mkvmerge v44.0.0 ('Domino') 64-bit
Writing library             : libebml v1.3.10 + libmatroska v1.5.2

Video
ID                          : 1
Format                      : AVC
Format/Info                 : Advanced Video Codec
Format profile              : High@L4.1
Format settings             : CABAC / 8 Ref Frames
Format settings, CABAC      : Yes
Format settings, Reference  : 8 frames
Codec ID                    : V_MPEG4/ISO/AVC
Duration                    : 1 h 39 min
Bit rate                    : 8 730 kb/s
Width                       : 1 920 pixels
Height                      : 808 pixels
Display aspect ratio        : 2.40:1
Frame rate mode             : Constant
Frame rate                  : 25.000 FPS
Color space                 : YUV
Chroma subsampling          : 4:2:0
Bit depth                   : 8 bits
Scan type                   : Progressive
Bits/(Pixel*Frame)          : 0.225
Stream size                 : 6.08 GiB (97%)
Title                       : 1080p.WEB.x264-DENiED
Writing library             : x264 core 159 r2991 1771b55
Encoding settings           : cabac=1 / ref=8 / deblock=1:-1:-1 / analyse=0x3:0x113 / me=umh / subme=9 / psy=1 / psy_rd=0.95:0.00 / mixed_ref=1 / me_range=16 / chroma_me=1 / trellis=2 / 8x8dct=1 / cqm=0 / deadzone=21,11 / fast_pskip=0 / chroma_qp_offset=-4 / threads=18 / lookahead_threads=2 / sliced_threads=0 / nr=0 / decimate=1 / interlaced=0 / bluray_compat=0 / constrained_intra=0 / bframes=6 / b_pyramid=2 / b_adapt=2 / b_bias=0 / direct=3 / weightb=1 / open_gop=0 / weightp=2 / keyint=250 / keyint_min=25 / scenecut=40 / intra_refresh=0 / rc_lookahead=40 / rc=2pass / mbtree=1 / bitrate=8730 / ratetol=1.0 / qcomp=0.60 / qpmin=0 / qpmax=69 / qpstep=4 / cplxblur=20.0 / qblur=0.5 / ip_ratio=1.40 / aq=2:0.80
Default                     : Yes
Forced                      : No

Audio
ID                          : 2
Format                      : E-AC-3
Format/Info                 : Enhanced AC-3
Commercial name             : Dolby Digital Plus
Codec ID                    : A_EAC3
Duration                    : 1 h 39 min
Bit rate mode               : Constant
Bit rate                    : 256 kb/s
Channel(s)                  : 6 channels
Channel layout              : L R C LFE Ls Rs
Sampling rate               : 48.0 kHz
Frame rate                  : 31.250 FPS (1536 SPF)
Compression mode            : Lossy
Stream size                 : 183 MiB (3%)
Title                       : DDP5.1
Language                    : Italian
Service kind                : Complete Main
Default                     : Yes
Forced                      : Yes

Text
ID                          : 3
Format                      : UTF-8
Codec ID                    : S_TEXT/UTF8
Codec ID/Info               : UTF-8 Plain Text
Duration                    : 1 h 38 min
Bit rate                    : 55 b/s
Count of elements           : 867
Stream size                 : 39.8 KiB (0%)
Title                       : COMPLETE
Language                    : Italian
Default                     : No
Forced                      : No


Contenuto nascosto visualizzato:
Il.Primo.Natale.2019.iTALiAN.1080p.DDP5.1.WEBRip.x264-DENiED.mkv


CREDITI DENiED
« Ultima modifica: 05 Aprile 2020, 20:15:14 da TV-P2P »

Connesso


INFO | RICHIESTE | RESEED | ALTRO
MANDATE UN MP
 





Screenshots
Categoria 1080p
Dimensione 6.26 GB
Data 22/07/2020
Uploader Inviato come anonimo
Nodi
Distributori: 5, Ricettori: 0 = 5 Nodi, Down = 24 volte
Report Torrent
Similar torrents
Name Added Size Seeders Leechers
Il Primo cent di Zio Paperone 24/02/2013 85.63 MB 217 37
Giatrus, il primo uomo S01e01-38 13/07/2011 5.74 GB 214 63
Valentina Mabilia Paolo Mastandrea - Il primo latino 05/11/2005 702.57 MB 214 86
Winnie the Pooh - Il primo Halloween da efelante 16/11/2009 701.32 MB 211 76
Andrea Sangiovanni - Il Primo Maggio 11/01/2014 20.54 MB 194 60
Giatrus, il primo uomo S01e35-36 Fix 12/03/2017 284.79 MB 192 76
Giatrus, il primo uomo S02e01-30 18/07/2011 4.07 GB 166 58
Il primo duello di Polidor (1913) 09/09/2016 256.07 MB 160 42
Il Primo Uomo (2011) 19/04/2013 1.37 GB 158 23
Anthony Trollope - Il Primo Ministro 17/01/2016 2.88 MB 148 55
Aggiorna
Ultimo aggiornamento 09/07/2020 04:06:31 (09/07/2020 04:06:31)


Utente
Commento:
smile1.gif wink.gif grin.gif tongue.gif sad.gif cry.gif noexpression.gif confused.gif ohmy.gif cool1.gif angel.gif sleep.gif angry.gif smile2.gif laugh.gif cool2.gif
Altre Emoticon
   



Supportaci
Supporta lo sviluppo e manutenzione del portale ~ Support portal development and maintenance ~ ilCorSaRoBlu.org Say Thank You!
 
Donazioni questo mese: 22%

Obbiettivo: €100
Fino a: 31/08/20
Ultimi Donatori
Donatore: Data:
V.I.P.morg94💗06/08/2020
V.I.P.giallux92💗05/08/2020
V.I.P.raffa💗04/08/2020
V.I.P.salazar43💗02/08/2020
V.I.P.Moochiek💗29/07/2020

click

I nostri partner
            

Site Disclaimer

www.ilCorSaRoBlu.org - Site Disclaimer

Coloro che hanno realizzato il sito (www.ilCorSaRoBlu.org) si dissociano dalle eventuali violazioni della legge n.633 del 22 aprile 1941 e successive modifiche sul diritto d' autore, specie nell'art. 172. Il materiale pubblicato è di proprietà dei rispettivi autori, i quali, tacitamente o non, hanno dato il consenso ai realizzatori per la pubblicazione sul sito. Di conseguenza, tutto il materiale pubblicato, per il fatto stesso che dev'essere utilizzato per soli scopi di studio e valutazione, non può essere definito illegale ma di libero utilizzo, quindi non viola gli art.615, 615 quater e 623 del Codice Penale; anche i Provider e gli ISP che ospitano tale materiale sono da ritenersi liberi da qualsiasi procedimento giudiziario. Poiché alcuni contenuti e informazioni all'interno della rete Web possono in vario modo violare le leggi vigenti, i realizzatori del sito avvertono l'utente che il download di alcuni file può costituire violazione di diritti d'autore e copyright. Gli autori non si assumono alcuna responsabilità a riguardo ed avvertono l'utente che l'uso che egli fa di tutto ciò che é contenuto su questo sito ricade sotto la sua completa ed esclusiva responsabilità. Scaricando uno qualunque dei files presenti sul sito l'utente concorda in un periodo di valutazione di 24 ore e prima che questo scada dovrà cancellare il file ovunque l'avrà copiato. Queste pagine non sono a scopo di lucro e i files possono essere scaricati solo per la valutazione e lo studio degli stessi.
Entrando in questo sito tutte le avvertenze riportate nel presente testo si ritengono condivise ed accettate in ogni punto, senza alcuna remora.
Chiunque non concordi con quanto suscritto è pregato di chiudere il portale ora e non visualizzare le pagine del presente sito.
Questo server non ospita nessun file ma solo i relativi torrent / metadati.

Per maggiori informazioni si prega di consultare Condizioni Generali di Uso del Sito e il relativo Removal.
Per ogni Domanda/Dubbio/Curiosità/Info si prega di contattare Il Supporto.
Buona Permanenza sul Portale www.ilCorSaRoBlu.org


Premium Membership