click

Sondaggi
Cosa ne pensi del nuovo Server del ilCorSaRoBlu.org













Dettagli Torrent
I
IIII

I
Nome I Toni Dell'Amore - Love Is Strange (2014).ita.eng.sub.ita.MIRCrew.torrent
Torrent I Toni Dell'Amore - Love Is Strange (2014).ita.eng.sub.ita.MIRCrew.torrent
Info Hash 2791ea5b220d775da97d729237d1e20eec64e476
Who thanked
Streaming Thor Player (Web)
(Alpha Version)
Rango Premium o V.I.P.
Richiesto,
per questa funzione!

Diventa Premium,
V.I.P. subito!
Donate

Play With Thor Player
Image
Descrizione



Love Is Strange - I Toni Dell'Amore (2014) DVDrip.XviD - Italian English.Ac3.5.1.Sub.Ita.MIRCrew


NO FOUND ONLY ORIGINAL RELEASE

I Toni Dell'Amore

Love Is Strange

(2014)

 
DATA USCITA: 20 novembre 2014 (USA)
GENERE: Drammatico
ANNO: 2014
REGIA: Ira Sachs
SCENEGGIATURA: Ira Sachs, Mauricio Zacharias
FOTOGRAFIA: Christos Voudouris
MONTAGGIO: Affonso Gonçalves, Michael Taylor
PRODUZIONE: Charlie Guidance, Mm...Buttered Panini Productions, Parts and Labor
DISTRIBUZIONE: Koch Media
PAESE: Francia, USA
DURATA: 98 Min
Marisa Tomei, John Lithgow, Alfred Molina, Cheyenne Jackson, Darren Burrows, Charlie Tahan, Christian Coulson, John Cullum, Harriet Sansom Harris
 
.

Delicato ed intimo ritratto della relazione di Ben e George, un'anziana coppia gay, che dopo quarant'anni decide di sposarsi. Ma la notizia del loro matrimonio giunge alla scuola cattolica dove lavora George come direttore del coro e viene bruscamente licenziato. Non potendosi più permettere il loro appartamento a New York, Ben e George dovranno trovare una soluzione e vivere temporaneamente separati. Mentre sono alla ricerca di un nuovo appartamento, con tutte le burocrazie del caso.............
After Ben and George get married, George is fired from his teaching post, forcing them to stay with friends separately while they sell their place and look for cheaper housing -- a situation that weighs heavily on all involved.....

 


Spoiler (hover to show)
General
Complete name                            : I Toni Dell'Amore - Love Is Strange (2014).ita.eng.sub.ita.MIRCrewI Toni Dell'Amore - Love Is Strange (2014).ita.eng.sub.ita.MIRCrew.avi
Format                                   : AVI
Format/Info                              : Audio Video Interleave
File size                                : 1.57 GiB
Duration                                 : 1h 30mn
Overall bit rate                         : 2 477 Kbps
Writing application                      : VirtualDubMod 1.5.4.1 (build 2178/release)
Writing library                          : VirtualDubMod build 2178/release

Video
ID                                       : 0
Format                                   : MPEG-4 Visual
Format profile                           : Advanced [email protected]
Format settings, BVOP                    : No
Format settings, QPel                    : No
Format settings, GMC                     : No warppoints
Format settings, Matrix                  : Custom
Codec ID                                 : XVID
Codec ID/Hint                            : XviD
Duration                                 : 1h 30mn
Bit rate                                 : 1 636 Kbps
Width                                    : 688 pixels
Height                                   : 384 pixels
Display aspect ratio                     : 16:9
Frame rate                               : 25.000 fps
Color space                              : YUV
Chroma subsampling                       : 4:2:0
Bit depth                                : 8 bits
Scan type                                : Progressive
Compression mode                         : Lossy
Bits/(Pixel*Frame)                       : 0.248
Stream size                              : 1.04 GiB (66%)
Writing library                          : XviD 64

Audio #1
ID                                       : 1
Format                                   : AC-3
Format/Info                              : Audio Coding 3
Mode extension                           : CM (complete main)
Codec ID                                 : 2000
Duration                                 : 1h 30mn
Bit rate mode                            : Constant
Bit rate                                 : 384 Kbps
Channel(s)                               : 6 channels
Channel positions                        : Front: L C R, Side: L R, LFE
Sampling rate                            : 48.0 KHz
Bit depth                                : 16 bits
Compression mode                         : Lossy
Stream size                              : 249 MiB (16%)
Alignment                                : Split accross interleaves
Interleave, duration                     : 96 ms (2.40 video frames)
Interleave, preload duration             : 96 ms
Language                                 : Italian

Audio #2
ID                                       : 2
Format                                   : AC-3
Format/Info                              : Audio Coding 3
Mode extension                           : CM (complete main)
Codec ID                                 : 2000
Duration                                 : 1h 30mn
Bit rate mode                            : Constant
Bit rate                                 : 448 Kbps
Channel(s)                               : 6 channels
Channel positions                        : Front: L C R, Side: L R, LFE
Sampling rate                            : 48.0 KHz
Bit depth                                : 16 bits
Compression mode                         : Lossy
Stream size                              : 291 MiB (18%)
Alignment                                : Split accross interleaves
Interleave, duration                     : 96 ms (2.40 video frames)
Interleave, preload duration             : 96 ms
Language                                 : English


I Toni Dell Amore (2014) DVDrip.XviD - Italian English.Ac3.5.1.Sub.Ita.MIRCrew

« Ultima modifica: 21 Febbraio 2016, 21:46:44 da Ba79 »

Connesso
 

Screenshots         
Categoria Other
Dimensione 1.58 GB
Data 11/02/2021
Uploader Inviato come anonimo
Nodi
Distributori: 1, Ricettori: 0 = 1 Nodi, Down = 0 volte
Report Torrent
Similar torrents
Name Added Size Seeders Leechers
I Toni dellAmore - Love is strange (2014) 20/11/2015 1.51 GB 41 17
Aggiorna
Ultimo aggiornamento 25/02/2021 11:28:04 (25/02/2021 11:28:04)


Utente
Commento:
smile1.gif wink.gif grin.gif tongue.gif sad.gif cry.gif noexpression.gif confused.gif ohmy.gif cool1.gif angel.gif sleep.gif angry.gif smile2.gif laugh.gif cool2.gif
Altre Emoticon
   



Supportaci
Supporta lo sviluppo e manutenzione del portale ~ Support portal development and maintenance ~ ilCorSaRoBlu.org Say Thank You!
 
Donazioni questo mese: 130%

Obbiettivo: €100
Fino a: 28/02/21
Ultimi Donatori
Donatore: Data:
V.I.P.cavallo84💗24/02/2021
V.I.P.Energia00💗24/02/2021
E**ar** L*l*i24/02/2021
V.I.P.rossi9000💗20/02/2021
V.I.P.diamom💗20/02/2021

click

I nostri partner
            

Site Disclaimer

www.ilCorSaRoBlu.org - Site Disclaimer

Coloro che hanno realizzato il sito (www.ilCorSaRoBlu.org) si dissociano dalle eventuali violazioni della legge n.633 del 22 aprile 1941 e successive modifiche sul diritto d' autore, specie nell'art. 172. Il materiale pubblicato è di proprietà dei rispettivi autori, i quali, tacitamente o non, hanno dato il consenso ai realizzatori per la pubblicazione sul sito. Di conseguenza, tutto il materiale pubblicato, per il fatto stesso che dev'essere utilizzato per soli scopi di studio e valutazione, non può essere definito illegale ma di libero utilizzo, quindi non viola gli art.615, 615 quater e 623 del Codice Penale; anche i Provider e gli ISP che ospitano tale materiale sono da ritenersi liberi da qualsiasi procedimento giudiziario. Poiché alcuni contenuti e informazioni all'interno della rete Web possono in vario modo violare le leggi vigenti, i realizzatori del sito avvertono l'utente che il download di alcuni file può costituire violazione di diritti d'autore e copyright. Gli autori non si assumono alcuna responsabilità a riguardo ed avvertono l'utente che l'uso che egli fa di tutto ciò che é contenuto su questo sito ricade sotto la sua completa ed esclusiva responsabilità. Scaricando uno qualunque dei files presenti sul sito l'utente concorda in un periodo di valutazione di 24 ore e prima che questo scada dovrà cancellare il file ovunque l'avrà copiato. Queste pagine non sono a scopo di lucro e i files possono essere scaricati solo per la valutazione e lo studio degli stessi.
Entrando in questo sito tutte le avvertenze riportate nel presente testo si ritengono condivise ed accettate in ogni punto, senza alcuna remora.
Chiunque non concordi con quanto suscritto è pregato di chiudere il portale ora e non visualizzare le pagine del presente sito.
Questo server non ospita nessun file ma solo i relativi torrent / metadati.

Per maggiori informazioni si prega di consultare Condizioni Generali di Uso del Sito e il relativo Removal.
Per ogni Domanda/Dubbio/Curiosità/Info si prega di contattare Il Supporto.
Buona Permanenza sul Portale www.ilCorSaRoBlu.org


Premium Membership