click

Sondaggi
Cosa ne pensi del nuovo Server del ilCorSaRoBlu.org













Dettagli Torrent
Enter
EnterEnterEnterEnter

Enter
Nome Enter The Void (2009) Extend.ita.eng.sub.ita.eng.MIRCrew.1.torrent
Torrent Enter The Void (2009) Extend.ita.eng.sub.ita.eng.MIRCrew.1.torrent
Info Hash 46a2b1c0da583fe7a4366559452b43a41c3e12d3
Who thanked
Streaming Thor Player (Web)
(Alpha Version)
Rango Premium o V.I.P.
Richiesto,
per questa funzione!

Diventa Premium,
V.I.P. subito!
Donate

Play With Thor Player
Image
Descrizione



Enter The Void (2009) Extend.BRrip.XviD - Italian english.Ac3 5.1 - Sub Ita Eng.MIRCrew


NO FOUND ONLY ORIGINAL RELEASE

Enter The Void

(2009) Extend
 
Titolo originale    Enter the Void
Lingua originale    inglese
Paese di produzione    Francia, Germania, Italia, Canada
Anno    2009
Durata    154 min
Rapporto    2,35:1
Genere    drammatico
Regia    Gaspar Noé
Sceneggiatura    Gaspar Noé, con l'aiuto di Lucile Hadžihalilovic[1]
Produttore    Brahim Chioua, Vincent Maraval, Olivier Delbosc, Marc Missonnier, Pierre Buffin, Philippe Bober (co-produttore), Valerio De Paolis (co-produttore), Gaspar Noé (produttore associato), Nicolas Leclercq (produttore associato)
Casa di produzione    Fidélité Films, Wild Bunch, Buf Compagne, Les Cinemas de la Zone, Essential Filmproduktion, BiM Distribuzione
Fotografia    Benoît Debie
Montaggio    Gaspar Noé, Marc Boucrot, Jerome Pesnel
Scenografia    Kikuo Ohta, Jean Carrière
Costumi    Tony Crosbie, Nicoletta Massone

   Nathaniel Brown: Oscar
   Paz de la Huerta: Linda
   Cyril Roy: Alex
   Olly Alexander: Victor
   Masato Tanno: Mario
   Ed Spear: Bruno
   Emily Alyn Lind: Linda bambina
   Jesse Kuhn: Oscar bambino
   Nobu Imai: Tito
   Sakiko Fukuhara: Saki
   Janice Sicotte-Béliveau: madre
   Sarah Stockbridge: Suzie, madre di Victor
   Yemi: Carol
.

La storia è ambientata a Tokyo, e vede come protagonista Oscar, un giovane spacciatore americano, che viene ucciso, ma che continua a vedere gli eventi che accadono a sua sorella Linda e alle persone che la circondano, grazie ad una sorta di esperienza extra corporea, fluttuando sopra le strade e attraverso i locali di Tokyo..................
A U.S. drug dealer living in Tokyo is betrayed by his best friend and killed in a drug deal. His soul, observing the repercussions of his death, seeks resurrection........

 
Spoiler (hover to show)
General
Complete name                            : Enter The Void (2009) Extend.ita.eng.sub.ita.eng.MIRCrewEnter The Void (2009) Extend.ita.eng.sub.ita.eng.MIRCrew.avi
Format                                   : AVI
Format/Info                              : Audio Video Interleave
Format profile                           : OpenDML
File size                                : 2.52 GiB
Duration                                 : 2h 34mn
Overall bit rate                         : 2 332 Kbps
Movie name                               : MIRCrew by robbys
Writing application                      : VirtualDubMod 1.5.10.2 (build 2540/release)
Writing library                          : VirtualDubMod build 2540/release

Video
ID                                       : 0
Format                                   : MPEG-4 Visual
Format profile                           : [email protected]
Format settings, BVOP                    : No
Format settings, QPel                    : No
Format settings, GMC                     : No warppoints
Format settings, Matrix                  : Default (H.263)
Codec ID                                 : XVID
Codec ID/Hint                            : XviD
Duration                                 : 2h 34mn
Bit rate                                 : 1 418 Kbps
Width                                    : 720 pixels
Height                                   : 304 pixels
Display aspect ratio                     : 2.35:1
Frame rate                               : 25.000 fps
Color space                              : YUV
Chroma subsampling                       : 4:2:0
Bit depth                                : 8 bits
Scan type                                : Progressive
Compression mode                         : Lossy
Bits/(Pixel*Frame)                       : 0.259
Stream size                              : 1.53 GiB (61%)
Writing library                          : XviD 64

Audio #1
ID                                       : 1
Format                                   : AC-3
Format/Info                              : Audio Coding 3
Mode extension                           : CM (complete main)
Codec ID                                 : 2000
Duration                                 : 2h 34mn
Bit rate mode                            : Constant
Bit rate                                 : 448 Kbps
Channel(s)                               : 6 channels
Channel positions                        : Front: L C R, Side: L R, LFE
Sampling rate                            : 48.0 KHz
Bit depth                                : 16 bits
Compression mode                         : Lossy
Stream size                              : 495 MiB (19%)
Alignment                                : Split accross interleaves
Interleave, duration                     : 40 ms (1.00 video frame)
Interleave, preload duration             : 500 ms

Audio #2
ID                                       : 2
Format                                   : AC-3
Format/Info                              : Audio Coding 3
Mode extension                           : CM (complete main)
Codec ID                                 : 2000
Duration                                 : 2h 34mn
Bit rate mode                            : Constant
Bit rate                                 : 448 Kbps
Channel(s)                               : 6 channels
Channel positions                        : Front: L C R, Side: L R, LFE
Sampling rate                            : 48.0 KHz
Bit depth                                : 16 bits
Compression mode                         : Lossy
Stream size                              : 495 MiB (19%)
Alignment                                : Split accross interleaves
Interleave, duration                     : 40 ms (1.00 video frame)
Interleave, preload duration             : 500 ms


Enter The Void (2009) Extend.BRrip.XviD - Italian english.Ac3 5.1 - Sub Ita Eng.MIRCrew
« Ultima modifica: 28 Febbraio 2016, 16:35:22 da nicola939 »

Connesso
 

Screenshots         
Categoria Other
Dimensione 2.52 GB
Data 09/02/2021
Uploader Inviato come anonimo
Nodi
Distributori: 54, Ricettori: 12 = 66 Nodi, Down = 9 volte
Report Torrent
Similar torrents
Name Added Size Seeders Leechers
Enter The Void (Gaspar Noé, 2009) 11/01/2013 7.58 GB 182 50
Enter.the.Fat.Dragon.2020.CHINESE.720p.BluRay.x264-Mkvking.mkv.torrent 07/05/2020 727.58 MB 117 19
Enter The Matrix 29/09/2010 2.41 GB 111 60
Enter The Void (Noé, 2009) 09/12/2012 1.71 GB 106 35
I tre delloperazione drago - Enter the Dragon (1973) 18/10/2011 7.99 GB 62 20
Kung Pow - Enter The Fist (2002) 19/04/2008 688.65 MB 31 65
IGG-Enter.The.Gungeon.v1.0.4.zip [MegafileTUBE.xyz].torrent 19/11/2017 1.09 GB 25 10
WU-TANG CLAN - Enter The Wu-Tang (36 Chambers) 06/06/2020 84.79 MB 20 33
Enter the Fat Dragon 2020 Blu-ray 1080p AVC TrueHD 7.1-CHDBits.torrent 10/05/2020 22.28 GB 13 8
Enter the Gungeon-GOG [MegafileTUBE.xyz].torrent 15/11/2017 302.01 MB 11 1
Aggiorna
Ultimo aggiornamento 03/03/2021 15:08:21 (03/03/2021 15:08:21)


Utente
Commento:
smile1.gif wink.gif grin.gif tongue.gif sad.gif cry.gif noexpression.gif confused.gif ohmy.gif cool1.gif angel.gif sleep.gif angry.gif smile2.gif laugh.gif cool2.gif
Altre Emoticon
   



Supportaci
Supporta lo sviluppo e manutenzione del portale ~ Support portal development and maintenance ~ ilCorSaRoBlu.org Say Thank You!
 
Donazioni questo mese: 0%

Obbiettivo: €100
Fino a: 31/03/21
Ultimi Donatori
Donatore: Data:
V.I.P.ammonite💗26/02/2021
V.I.P.kerene💗25/02/2021
V.I.P.cavallo84💗24/02/2021
V.I.P.Energia00💗24/02/2021
V.I.P.Daddo💗24/02/2021

click

I nostri partner
            

Site Disclaimer

www.ilCorSaRoBlu.org - Site Disclaimer

Coloro che hanno realizzato il sito (www.ilCorSaRoBlu.org) si dissociano dalle eventuali violazioni della legge n.633 del 22 aprile 1941 e successive modifiche sul diritto d' autore, specie nell'art. 172. Il materiale pubblicato è di proprietà dei rispettivi autori, i quali, tacitamente o non, hanno dato il consenso ai realizzatori per la pubblicazione sul sito. Di conseguenza, tutto il materiale pubblicato, per il fatto stesso che dev'essere utilizzato per soli scopi di studio e valutazione, non può essere definito illegale ma di libero utilizzo, quindi non viola gli art.615, 615 quater e 623 del Codice Penale; anche i Provider e gli ISP che ospitano tale materiale sono da ritenersi liberi da qualsiasi procedimento giudiziario. Poiché alcuni contenuti e informazioni all'interno della rete Web possono in vario modo violare le leggi vigenti, i realizzatori del sito avvertono l'utente che il download di alcuni file può costituire violazione di diritti d'autore e copyright. Gli autori non si assumono alcuna responsabilità a riguardo ed avvertono l'utente che l'uso che egli fa di tutto ciò che é contenuto su questo sito ricade sotto la sua completa ed esclusiva responsabilità. Scaricando uno qualunque dei files presenti sul sito l'utente concorda in un periodo di valutazione di 24 ore e prima che questo scada dovrà cancellare il file ovunque l'avrà copiato. Queste pagine non sono a scopo di lucro e i files possono essere scaricati solo per la valutazione e lo studio degli stessi.
Entrando in questo sito tutte le avvertenze riportate nel presente testo si ritengono condivise ed accettate in ogni punto, senza alcuna remora.
Chiunque non concordi con quanto suscritto è pregato di chiudere il portale ora e non visualizzare le pagine del presente sito.
Questo server non ospita nessun file ma solo i relativi torrent / metadati.

Per maggiori informazioni si prega di consultare Condizioni Generali di Uso del Sito e il relativo Removal.
Per ogni Domanda/Dubbio/Curiosità/Info si prega di contattare Il Supporto.
Buona Permanenza sul Portale www.ilCorSaRoBlu.org


Premium Membership