click

Sondaggi
Cosa ne pensi del nuovo Server del ilCorSaRoBlu.org













Dettagli Torrent
End
EndEndEndEnd

End
Nome End Of Watch - Tolleranza Zero (2012).ita.eng.sub.ita.eng.MIRCrew.torrent
Torrent End Of Watch - Tolleranza Zero (2012).ita.eng.sub.ita.eng.MIRCrew.torrent
Info Hash e6d4058490908c6946e27e536b0e330b90ed76da
Who thanked
Streaming Thor Player (Web)
(Alpha Version)
Rango Premium o V.I.P.
Richiesto,
per questa funzione!

Diventa Premium,
V.I.P. subito!
Donate

Play With Thor Player
Image
Descrizione



End of Watch - Tolleranza zero (2012) [XviD - Italian English Ac3 5.1 - Sub ita Eng] MIRCrew
NO FOUND ONLY ORIGINAL RELEASE


End of Watch - Tolleranza zero

(2012)


 
Titolo originale    End of Watch
Paese di produzione    USA
Anno    2012
Durata    109 min
Genere    poliziesco, thriller, drammatico, film-documentario
Regia    ;David Ayer
Sceneggiatura    ;David Ayer
Produttore    ;David Ayer, John Lesher, Randall Emmett, George Furla, Mike Gunther
Produttore esecutivo    Adam Kassan, Chrisann Verges
Casa di produzione    Crave Films, 5150 Action, Emmett/Furla Films, Exclusive Media Group, Le Grisbi Productions
Fotografia    Roman Vasyanov
Montaggio    ;Dody Dorn
Effetti speciali    Kevin Hannigan
Musiche    ;David Sardy
Scenografia    ;Devorah Herbert
Costumi    Mary Claire Hannan, Robert Iannaccone
Trucco    Heather Mages


   Jake Gyllenhaal: Brian Taylor
   Michael Peña: Mike Zavala
   Anna Kendrick: Janet
   America Ferrera: Orozco
   Natalie Martinez: Gabby
   Frank Grillo: Sarge
   ;David Harbour: Van Hauser
   Shondrella Avery: Bonita
   Cody Horn: Agente Davis
Il film è incentrato sulla storia di due agenti di pattuglia del Los Angeles Police Department, Brian Taylor e Mike Zavala. La loro amicizia è molto profonda, e sanno di doversi proteggere a vicenda, cercando di arrivare alla fine del turno. Il loro lavoro consiste nell'interrompere la criminalità  organizzata in una zona di Los Angeles, scovando piccoli spacciatori di droga e altri delinquenti della zona...
Shot documentary-style, this film follows the daily grind of two young police officers in LA who are partners and friends, and what happens when they meet criminal forces greater than themselves........


Spoiler (hover to show)
General
Complete name                            : End Of Watch - Tolleranza Zero (2012).ita.eng.sub.ita.eng.MIRCrewEnd Of Watch - Tolleranza Zero (2012).ita.eng.sub.ita.eng.MIRCrew.avi
Format                                   : AVI
Format/Info                              : Audio Video Interleave
File size                                : 1.74 GiB
Duration                                 : 1h 48mn
Overall bit rate                         : 2 297 Kbps
Writing application                      : VirtualDubMod 1.5.10.2 (build 2540/release)
Writing library                          : VirtualDubMod build 2540/release

Video
ID                                       : 0
Format                                   : MPEG-4 Visual
Format profile                           : Advanced Simple@L5
Format settings, BVOP                    : 2
Format settings, QPel                    : No
Format settings, GMC                     : No warppoints
Format settings, Matrix                  : Default (H.263)
Codec ID                                 : XVID
Codec ID/Hint                            : XviD
Duration                                 : 1h 48mn
Bit rate                                 : 1 387 Kbps
Width                                    : 720 pixels
Height                                   : 384 pixels
Display aspect ratio                     : 1.875
Original display aspect ratio            : 16:9
Frame rate                               : 24.000 fps
Color space                              : YUV
Chroma subsampling                       : 4:2:0
Bit depth                                : 8 bits
Scan type                                : Progressive
Compression mode                         : Lossy
Bits/(Pixel*Frame)                       : 0.209
Stream size                              : 1.05 GiB (60%)
Writing library                          : XviD 1.2.1 (UTC 2008-12-04)

Audio #1
ID                                       : 1
Format                                   : AC-3
Format/Info                              : Audio Coding 3
Mode extension                           : CM (complete main)
Codec ID                                 : 2000
Duration                                 : 1h 48mn
Bit rate mode                            : Constant
Bit rate                                 : 448 Kbps
Channel(s)                               : 6 channels
Channel positions                        : Front: L C R, Side: L R, LFE
Sampling rate                            : 48.0 KHz
Bit depth                                : 16 bits
Compression mode                         : Lossy
Stream size                              : 348 MiB (20%)
Alignment                                : Split accross interleaves
Interleave, duration                     : 42 ms (1.00 video frame)
Interleave, preload duration             : 500 ms

Audio #2
ID                                       : 2
Format                                   : AC-3
Format/Info                              : Audio Coding 3
Mode extension                           : CM (complete main)
Codec ID                                 : 2000
Duration                                 : 1h 48mn
Bit rate mode                            : Constant
Bit rate                                 : 448 Kbps
Channel(s)                               : 6 channels
Channel positions                        : Front: L C R, Side: L R, LFE
Sampling rate                            : 48.0 KHz
Bit depth                                : 16 bits
Compression mode                         : Lossy
Stream size                              : 348 MiB (20%)
Alignment                                : Split accross interleaves
Interleave, duration                     : 42 ms (1.00 video frame)
Interleave, preload duration             : 500 ms


End of Watch - Tolleranza zero (2012) [XviD - Italian English Ac3 5.1 - Sub ita Eng] MIRCrew


« Ultima modifica: 06 Marzo 2016, 16:02:58 da Ba79 »

Connesso
 

Screenshots         
Categoria Other
Dimensione 1.77 GB
Data 06/01/2021
Uploader Inviato come anonimo
Nodi
Distributori: 1, Ricettori: 0 = 1 Nodi, Down = 0 volte
Report Torrent
Similar torrents
Name Added Size Seeders Leechers
End of watch - Tolleranza zero (2012) 22/11/2013 1.46 GB 38 43
End.of.Watch-Tolleranza.Zero.2012.ITA.HDTV-iCV.mp4.torrent 25/03/2020 1.30 GB 4 8
Aggiorna
Ultimo aggiornamento 26/01/2021 18:19:55 (26/01/2021 18:19:55)


Utente
Commento:
smile1.gif wink.gif grin.gif tongue.gif sad.gif cry.gif noexpression.gif confused.gif ohmy.gif cool1.gif angel.gif sleep.gif angry.gif smile2.gif laugh.gif cool2.gif
Altre Emoticon
   



Supportaci
Supporta lo sviluppo e manutenzione del portale ~ Support portal development and maintenance ~ ilCorSaRoBlu.org Say Thank You!
 
Donazioni questo mese: 169%

Obbiettivo: €100
Fino a: 31/01/21
Ultimi Donatori
Donatore: Data:
V.I.P.tulbin73💗25/01/2021
M***ia Bar***i*i23/01/2021
V.I.P.doctoreffe💗22/01/2021
V.I.P.BigSteven💗22/01/2021
V.I.P.Reinhart💗22/01/2021

click

I nostri partner
            

Site Disclaimer

www.ilCorSaRoBlu.org - Site Disclaimer

Coloro che hanno realizzato il sito (www.ilCorSaRoBlu.org) si dissociano dalle eventuali violazioni della legge n.633 del 22 aprile 1941 e successive modifiche sul diritto d' autore, specie nell'art. 172. Il materiale pubblicato è di proprietà dei rispettivi autori, i quali, tacitamente o non, hanno dato il consenso ai realizzatori per la pubblicazione sul sito. Di conseguenza, tutto il materiale pubblicato, per il fatto stesso che dev'essere utilizzato per soli scopi di studio e valutazione, non può essere definito illegale ma di libero utilizzo, quindi non viola gli art.615, 615 quater e 623 del Codice Penale; anche i Provider e gli ISP che ospitano tale materiale sono da ritenersi liberi da qualsiasi procedimento giudiziario. Poiché alcuni contenuti e informazioni all'interno della rete Web possono in vario modo violare le leggi vigenti, i realizzatori del sito avvertono l'utente che il download di alcuni file può costituire violazione di diritti d'autore e copyright. Gli autori non si assumono alcuna responsabilità a riguardo ed avvertono l'utente che l'uso che egli fa di tutto ciò che é contenuto su questo sito ricade sotto la sua completa ed esclusiva responsabilità. Scaricando uno qualunque dei files presenti sul sito l'utente concorda in un periodo di valutazione di 24 ore e prima che questo scada dovrà cancellare il file ovunque l'avrà copiato. Queste pagine non sono a scopo di lucro e i files possono essere scaricati solo per la valutazione e lo studio degli stessi.
Entrando in questo sito tutte le avvertenze riportate nel presente testo si ritengono condivise ed accettate in ogni punto, senza alcuna remora.
Chiunque non concordi con quanto suscritto è pregato di chiudere il portale ora e non visualizzare le pagine del presente sito.
Questo server non ospita nessun file ma solo i relativi torrent / metadati.

Per maggiori informazioni si prega di consultare Condizioni Generali di Uso del Sito e il relativo Removal.
Per ogni Domanda/Dubbio/Curiosità/Info si prega di contattare Il Supporto.
Buona Permanenza sul Portale www.ilCorSaRoBlu.org


Premium Membership