click

Sondaggi
Cosa ne pensi del nuovo Server del ilCorSaRoBlu.org












Dettagli Torrent
Corri
CorriCorriCorriCorri

Corri

Nome Corri Ragazzo Corri (2013).ita.fre.sub.ita.MIRCrew.torrent
Torrent Corri Ragazzo Corri (2013).ita.fre.sub.ita.MIRCrew.torrent
Info Hash a6a5ebb9638ba47231a4abb41d7227e7138ab248
Who thanked
Streaming Thor Player (Web)
(Alpha Version)
Rango Premium o V.I.P.
Richiesto,
per questa funzione!

Diventa Premium,
V.I.P. subito!
Donate

Play With Thor Player
Image
Descrizione






Corri Ragazzo Corri -  Lauf Junge lauf (2013).DVDrip.XviD - Italian French.Ac3.5.1.Sub.ita.MIRCrew


NO FOUND ONLY ORIGINAL RELEASE

Corri Ragazzo Corri

Lauf Junge lauf

(2013)
 
DATA USCITA: 26 gennaio 2015
GENERE: Azione, Drammatico, Guerra
ANNO: 2013
REGIA: Pepe Danquart
SCENEGGIATURA: Heinrich Hadding, Pepe Danquart

   FOTOGRAFIA: Daniel Gottschalk
   MONTAGGIO: Richard Marizy
   MUSICHE: Stéphane Moucha
   PRODUZIONE: Bittersuess Pictures, Ciné-Sud Promotion, A Company Filmproduktionsgesellschaft
   ;DISTRIBUZIONE: Lucky Red
   PAESE: Germania, Francia
   ;DURATA: 108 Min

Andrzej Tkacz - Kamil Tkacz - Elisabeth Duda - Jeanette Hain - Itay Tiran - Katarzyna Bargielowska - Zbigniew Zamachowski - Grazyna Szapolowska - Miroslaw Baka - Olgierd Lukaszewicz - Izabela Kuna - Urs Rechn Anno: 2013
 
.

Jurek ha circa nove anni quando fugge dal ghetto di Varsavia. Costretto a separarsi dai fratelli e dai genitori per salvarsi dai nazisti, vivrà  i durissimi tre anni che lo separano dalla fine della guerra nei boschi e nei villaggi vicino alla capitale. Imparerà  a dormire sugli alberi e a cacciare per nutrirsi. ......
Srulik, an eight-year-old boy, flees from the Warsaw ghetto in 1942. He attempts to survive, at first alone in the forest, and then as a Christian orphan named Jurek on a Polish farm. ..................


Spoiler (hover to show)


Spoiler (hover to show)

General
Complete name                            : Corri Ragazzo Corri (2013).ita.fre.sub.ita.MIRCrewCorri Ragazzo Corri (2013).ita.fre.sub.ita.MIRCrew.avi
Format                                   : AVI
Format/Info                              : Audio Video Interleave
File size                                : 1.66 GiB
Duration                                 : 1h 43mn
Overall bit rate                         : 2 307 Kbps
Writing application                      : VirtualDubMod 1.5.4.1 (build 2178/release)
Writing library                          : VirtualDubMod build 2178/release

Video
ID                                       : 0
Format                                   : MPEG-4 Visual
Format profile                           : Advanced Simple@L5
Format settings, BVOP                    : 1
Format settings, QPel                    : No
Format settings, GMC                     : No warppoints
Format settings, Matrix                  : Custom
Codec ID                                 : XVID
Codec ID/Hint                            : XviD
Duration                                 : 1h 43mn
Bit rate                                 : 1 402 Kbps
Width                                    : 624 pixels
Height                                   : 272 pixels
Display aspect ratio                     : 2.25:1
Frame rate                               : 25.000 fps
Color space                              : YUV
Chroma subsampling                       : 4:2:0
Bit depth                                : 8 bits
Scan type                                : Progressive
Compression mode                         : Lossy
Bits/(Pixel*Frame)                       : 0.330
Stream size                              : 1.01 GiB (61%)
Writing library                          : XviD 64

Audio #1
ID                                       : 1
Format                                   : AC-3
Format/Info                              : Audio Coding 3
Mode extension                           : CM (complete main)
Codec ID                                 : 2000
Duration                                 : 1h 43mn
Bit rate mode                            : Constant
Bit rate                                 : 448 Kbps
Channel(s)                               : 6 channels
Channel positions                        : Front: L C R, Side: L R, LFE
Sampling rate                            : 48.0 KHz
Bit depth                                : 16 bits
Compression mode                         : Lossy
Stream size                              : 330 MiB (19%)
Alignment                                : Split accross interleaves
Interleave, duration                     : 96 ms (2.40 video frames)
Interleave, preload duration             : 96 ms
Language                                 : Italian

Audio #2
ID                                       : 2
Format                                   : AC-3
Format/Info                              : Audio Coding 3
Mode extension                           : CM (complete main)
Codec ID                                 : 2000
Duration                                 : 1h 43mn
Bit rate mode                            : Constant
Bit rate                                 : 448 Kbps
Channel(s)                               : 6 channels
Channel positions                        : Front: L C R, Side: L R, LFE
Sampling rate                            : 48.0 KHz
Bit depth                                : 16 bits
Compression mode                         : Lossy
Stream size                              : 330 MiB (19%)
Alignment                                : Split accross interleaves
Interleave, duration                     : 96 ms (2.40 video frames)
Interleave, preload duration             : 96 ms
Language                                 : English


Corri Ragazzo Corri (2013).DVDrip.XviD - Italian French.Ac3.5.1.Sub.ita.MIRCrew

« Ultima modifica: 20 Febbraio 2016, 18:03:37 da Ba79 »

Connesso
 





Screenshots         
Categoria Other
Dimensione 1.67 GB
Data 30/08/2020
Uploader Inviato come anonimo
Nodi
Distributori: 19, Ricettori: 10 = 29 Nodi, Down = 0 volte
Report Torrent
Similar torrents
Name Added Size Seeders Leechers
Corri ragazzo corri (2013) 10/04/2020 1.74 GB 206 54
[eBook]FL013 Orlev Uri - Corri ragazzo, corri [by FoxyLady].torrent.icb.torrent 01/07/2019 3.04 MB 35 6
Corri Ragazzo Corri 2013.avi [MegafileTUBE.xyz].torrent 13/04/2020 1.37 GB 6 1
Aggiorna
Ultimo aggiornamento 29/09/2020 22:32:41 (29/09/2020 22:32:41)


Utente
Commento:
smile1.gif wink.gif grin.gif tongue.gif sad.gif cry.gif noexpression.gif confused.gif ohmy.gif cool1.gif angel.gif sleep.gif angry.gif smile2.gif laugh.gif cool2.gif
Altre Emoticon
   



Supportaci
Supporta lo sviluppo e manutenzione del portale ~ Support portal development and maintenance ~ ilCorSaRoBlu.org Say Thank You!
 
Donazioni questo mese: 37%

Obbiettivo: €100
Fino a: 30/09/20
Ultimi Donatori
Donatore: Data:
V.I.P.Moochiek💗29/09/2020
V.I.P.Sobrepin💗26/09/2020
V.I.P.brukilde💗23/09/2020
V.I.P.tangram57💗18/09/2020
V.I.P.Michele92💗15/09/2020

click

I nostri partner
            

Site Disclaimer

www.ilCorSaRoBlu.org - Site Disclaimer

Coloro che hanno realizzato il sito (www.ilCorSaRoBlu.org) si dissociano dalle eventuali violazioni della legge n.633 del 22 aprile 1941 e successive modifiche sul diritto d' autore, specie nell'art. 172. Il materiale pubblicato è di proprietà dei rispettivi autori, i quali, tacitamente o non, hanno dato il consenso ai realizzatori per la pubblicazione sul sito. Di conseguenza, tutto il materiale pubblicato, per il fatto stesso che dev'essere utilizzato per soli scopi di studio e valutazione, non può essere definito illegale ma di libero utilizzo, quindi non viola gli art.615, 615 quater e 623 del Codice Penale; anche i Provider e gli ISP che ospitano tale materiale sono da ritenersi liberi da qualsiasi procedimento giudiziario. Poiché alcuni contenuti e informazioni all'interno della rete Web possono in vario modo violare le leggi vigenti, i realizzatori del sito avvertono l'utente che il download di alcuni file può costituire violazione di diritti d'autore e copyright. Gli autori non si assumono alcuna responsabilità a riguardo ed avvertono l'utente che l'uso che egli fa di tutto ciò che é contenuto su questo sito ricade sotto la sua completa ed esclusiva responsabilità. Scaricando uno qualunque dei files presenti sul sito l'utente concorda in un periodo di valutazione di 24 ore e prima che questo scada dovrà cancellare il file ovunque l'avrà copiato. Queste pagine non sono a scopo di lucro e i files possono essere scaricati solo per la valutazione e lo studio degli stessi.
Entrando in questo sito tutte le avvertenze riportate nel presente testo si ritengono condivise ed accettate in ogni punto, senza alcuna remora.
Chiunque non concordi con quanto suscritto è pregato di chiudere il portale ora e non visualizzare le pagine del presente sito.
Questo server non ospita nessun file ma solo i relativi torrent / metadati.

Per maggiori informazioni si prega di consultare Condizioni Generali di Uso del Sito e il relativo Removal.
Per ogni Domanda/Dubbio/Curiosità/Info si prega di contattare Il Supporto.
Buona Permanenza sul Portale www.ilCorSaRoBlu.org


Premium Membership