click

Sondaggi
Cosa ne pensi del nuovo Server del ilCorSaRoBlu.org













Dettagli Torrent
Burn
BurnBurnBurnBurn

Burn
Nome Burn After Reading - A prova di spia (2008).ita.eng.sub.ita.eng.MIRCrew.ita.torrent
Torrent Burn After Reading - A prova di spia (2008).ita.eng.sub.ita.eng.MIRCrew.ita.torrent
Info Hash 06f59f450b8e5686f018b38a726f2e840ce62649
Who thanked
Streaming Thor Player (Web)
(Alpha Version)
Rango Premium o V.I.P.
Richiesto,
per questa funzione!

Diventa Premium,
V.I.P. subito!
Donate

Play With Thor Player
Image
Descrizione



Burn After Reading - A prova di spia (2008).BRrip.XviD - Italian English.Ac3 Sub Ita Eng MIRCrew


NO FOUND ONLY ORIGINAL RELEASE

Burn After Reading - A prova di spia

(2008)

 
Titolo originale    Burn After Reading
Paese di produzione    USA
Anno    2008
Durata    96 min
Rapporto    16:9
Genere    commedia, drammatico, noir
Regia    Ethan Coen, Joel Coen
Soggetto    Ethan Coen, Joel Coen
Sceneggiatura    Ethan Coen, Joel Coen
Casa di produzione    Mike Zoss Productions, Relativity Media, Studio Canal, Working Title Films
Distribuzione (Italia)    Medusa Film
Fotografia    Emmanuel Lubezki
Montaggio    Roderick Jaynes
Musiche    Carter Burwell
Scenografia    Jess Gonchor

   John Malkovich: Osbourne Cox
   Frances McDormand: Linda Litzke
   George Clooney: Harry Pfarrer
   Tilda Swinton: Katie Cox
   Brad Pitt: Chad Feldheimer
   Richard Jenkins: Ted Treffon
   J. K. Simmons: Presidente CIA
   Elizabeth Marvel: Sandra "Sandy" Pfarrer, la moglie di Harry
   ;David Rasche: agente Palmer Smith
   Olek Krupa: Krapotkin


.
Osbourne Cox è un ex agente della CIA, licenziato a causa di ragioni politiche (mascherate con la scusa dell'alcolismo). Ormai senza lavoro, decide di scrivere le sue memorie degli anni passati alla CIA, ma per una serie di coincidenze queste finiscono nelle mani dei personal trainer Chad Feldheimer e Linda Litzke. ....
Osbourne Cox, a Balkan expert, is fired at the CIA, so he begins a memoir. His wife wants a divorce and expects her lover, Harry, a philandering State Department marshal, to leave his wife. A diskette falls out of a gym bag at a Georgetown fitness center......


FILMOGRAFIE

Brad Pitt  - George Clooney  


Spoiler (hover to show)
General
Complete name                            : Burn After Reading - A prova di spia (2008).ita.eng.sub.ita.eng.MIRCrew.itaBurn After Reading - A prova di spia (2008).ita.eng.sub.ita.eng.MIRCrew.avi
Format                                   : AVI
Format/Info                              : Audio Video Interleave
File size                                : 1.62 GiB
Duration                                 : 1h 35mn
Overall bit rate                         : 2 420 Kbps
Movie name                               : MIRCrew by robbyrs
Writing application                      : VirtualDubMod 1.5.10.2 (build 2540/release)
Writing library                          : VirtualDubMod build 2540/release

Video
ID                                       : 0
Format                                   : MPEG-4 Visual
Format profile                           : Simple@L3
Format settings, BVOP                    : No
Format settings, QPel                    : No
Format settings, GMC                     : No warppoints
Format settings, Matrix                  : Default (H.263)
Codec ID                                 : XVID
Codec ID/Hint                            : XviD
Duration                                 : 1h 35mn
Bit rate                                 : 1 510 Kbps
Width                                    : 720 pixels
Height                                   : 390 pixels
Display aspect ratio                     : 16:9
Frame rate                               : 23.976 fps
Color space                              : YUV
Chroma subsampling                       : 4:2:0
Bit depth                                : 8 bits
Scan type                                : Progressive
Compression mode                         : Lossy
Bits/(Pixel*Frame)                       : 0.224
Stream size                              : 1.01 GiB (62%)
Writing library                          : XviD 64

Audio #1
ID                                       : 1
Format                                   : AC-3
Format/Info                              : Audio Coding 3
Mode extension                           : CM (complete main)
Codec ID                                 : 2000
Duration                                 : 1h 35mn
Bit rate mode                            : Constant
Bit rate                                 : 448 Kbps
Channel(s)                               : 6 channels
Channel positions                        : Front: L C R, Side: L R, LFE
Sampling rate                            : 48.0 KHz
Bit depth                                : 16 bits
Compression mode                         : Lossy
Stream size                              : 307 MiB (18%)
Alignment                                : Split accross interleaves
Interleave, duration                     : 42 ms (1.00 video frame)
Interleave, preload duration             : 500 ms

Audio #2
ID                                       : 2
Format                                   : AC-3
Format/Info                              : Audio Coding 3
Mode extension                           : CM (complete main)
Codec ID                                 : 2000
Duration                                 : 1h 35mn
Bit rate mode                            : Constant
Bit rate                                 : 448 Kbps
Channel(s)                               : 6 channels
Channel positions                        : Front: L C R, Side: L R, LFE
Sampling rate                            : 48.0 KHz
Bit depth                                : 16 bits
Compression mode                         : Lossy
Stream size                              : 307 MiB (19%)
Alignment                                : Split accross interleaves
Interleave, duration                     : 42 ms (1.00 video frame)
Interleave, preload duration             : 500 ms

Contenuto nascosto visualizzato:
Burn After Reading - A prova di spia (2008).BRrip.XviD - Italian English.Ac3 Sub Ita Eng MIRCrew

« Ultima modifica: 09 Settembre 2017, 06:54:04 da NATODINUOVO »

Connesso
 

Screenshots         
Categoria Other
Dimensione 1.62 GB
Data 06/10/2020
Uploader Inviato come anonimo
Nodi
Distributori: 3, Ricettori: 9 = 12 Nodi, Down = 0 volte
Report Torrent
Similar torrents
Name Added Size Seeders Leechers
Burn after reading - A prova di spia (2008) 19/03/2010 1.45 GB 211 27
Burn After Reading - A Prova Di Spia (2008) 17/09/2015 7.72 GB 159 72
Burn After Reading - A prova di spia (2008) 21/01/2015 3.62 GB 80 51
Aggiorna
Ultimo aggiornamento 28/10/2020 17:17:13 (28/10/2020 17:17:13)


Utente
Commento:
smile1.gif wink.gif grin.gif tongue.gif sad.gif cry.gif noexpression.gif confused.gif ohmy.gif cool1.gif angel.gif sleep.gif angry.gif smile2.gif laugh.gif cool2.gif
Altre Emoticon
   



Supportaci
Supporta lo sviluppo e manutenzione del portale ~ Support portal development and maintenance ~ ilCorSaRoBlu.org Say Thank You!
 
Donazioni questo mese: 51%

Obbiettivo: €100
Fino a: 31/10/20
Ultimi Donatori
Donatore: Data:
V.I.P.bisca9311💗26/10/2020
V.I.P.marsr28💗18/10/2020
V.I.P.leon27461💗15/10/2020
V.I.P.Pepi89💗13/10/2020
V.I.P.Angelo99💗11/10/2020

click

I nostri partner
            

Site Disclaimer

www.ilCorSaRoBlu.org - Site Disclaimer

Coloro che hanno realizzato il sito (www.ilCorSaRoBlu.org) si dissociano dalle eventuali violazioni della legge n.633 del 22 aprile 1941 e successive modifiche sul diritto d' autore, specie nell'art. 172. Il materiale pubblicato è di proprietà dei rispettivi autori, i quali, tacitamente o non, hanno dato il consenso ai realizzatori per la pubblicazione sul sito. Di conseguenza, tutto il materiale pubblicato, per il fatto stesso che dev'essere utilizzato per soli scopi di studio e valutazione, non può essere definito illegale ma di libero utilizzo, quindi non viola gli art.615, 615 quater e 623 del Codice Penale; anche i Provider e gli ISP che ospitano tale materiale sono da ritenersi liberi da qualsiasi procedimento giudiziario. Poiché alcuni contenuti e informazioni all'interno della rete Web possono in vario modo violare le leggi vigenti, i realizzatori del sito avvertono l'utente che il download di alcuni file può costituire violazione di diritti d'autore e copyright. Gli autori non si assumono alcuna responsabilità a riguardo ed avvertono l'utente che l'uso che egli fa di tutto ciò che é contenuto su questo sito ricade sotto la sua completa ed esclusiva responsabilità. Scaricando uno qualunque dei files presenti sul sito l'utente concorda in un periodo di valutazione di 24 ore e prima che questo scada dovrà cancellare il file ovunque l'avrà copiato. Queste pagine non sono a scopo di lucro e i files possono essere scaricati solo per la valutazione e lo studio degli stessi.
Entrando in questo sito tutte le avvertenze riportate nel presente testo si ritengono condivise ed accettate in ogni punto, senza alcuna remora.
Chiunque non concordi con quanto suscritto è pregato di chiudere il portale ora e non visualizzare le pagine del presente sito.
Questo server non ospita nessun file ma solo i relativi torrent / metadati.

Per maggiori informazioni si prega di consultare Condizioni Generali di Uso del Sito e il relativo Removal.
Per ogni Domanda/Dubbio/Curiosità/Info si prega di contattare Il Supporto.
Buona Permanenza sul Portale www.ilCorSaRoBlu.org


Premium Membership