click

Sondaggi
Cosa ne pensi del nuovo Server del ilCorSaRoBlu.org













Dettagli Torrent
Animali
AnimaliAnimaliAnimaliAnimali

Animali
Nome Animali Fantastici - I Segreti di Silente
Torrent Animali Fantastici - I Segreti di Silente
Info Hash 245655b55a7e1ff72d0c93e853e3577c111c845e
Who thanked
Streaming Thor Player (Web)
(Alpha Version)
Rango Premium o V.I.P.
Richiesto,
per questa funzione!

Diventa Premium,
V.I.P. subito!
Donate

Play With Thor Player
Descrizione Animali Fantastici - I Segreti di Silente è un film di genere avventura, family, fantasy del 2022, diretto da David Yates, con Eddie Redmayne e Mads Mikkelsen.
Uscita al cinema il 13 aprile 2022. Durata 142 minuti. Distribuito da Warner Bros. Pictures.

Regista: David Yates
Genere: Avventura, Family, Fantasy
Anno: 2022
Paese: USA
Durata: 142 min
Data di uscita: 13 aprile 2022
Distribuzione: Warner Bros. Pictures



Code
General
Unique ID                                : 215850752556748036531000544354923571293 (0xA26357C0DF72D86BB08C5DE850C5E85D)
Complete name                       :  Animali.Fantastici.I.Segreti.Di.Silente.2022.iTA.AC3.BdRip.1080p.x264-TBR.mkv
Format                                   : Matroska
Format version                           : Version 2
File size                                : 1.98 GiB
Duration                                 : 2 h 22 min
Overall bit rate                         : 1 985 kb/s
Movie name                               : Animali Fantastici - I Segreti Di Silente  -  TBR
Encoded date                             : UTC 2022-05-30 21:56:20
Writing application                      : mkvmerge v5.6.0 ('Kenya Kane') built on May 27 2012 16:44:04
Writing library                          : libebml v1.2.3 + libmatroska v1.3.0

Video
ID                                       : 1
Format                                   : AVC
Format/Info                              : Advanced Video Codec
Format profile                           : [email protected]
Format settings                          : CABAC / 4 Ref Frames
Format settings, CABAC                   : Yes
Format settings, Reference frames        : 4 frames
Muxing mode                              : Header stripping
Codec ID                                 : V_MPEG4/ISO/AVC
Duration                                 : 2 h 22 min
Bit rate                                 : 1 600 kb/s
Width                                    : 1 920 pixels
Height                                   : 800 pixels
Display aspect ratio                     : 2.40:1
Frame rate mode                          : Constant
Frame rate                               : 23.976 (24000/1001) FPS
Color space                              : YUV
Chroma subsampling                       : 4:2:0
Bit depth                                : 8 bits
Scan type                                : Progressive
Bits/(Pixel*Frame)                       : 0.043
Stream size                              : 1.56 GiB (79%)
Title                                    : Animali Fantastici - I Segreti Di Silente
Writing library                          : x264 core 157 r2969 d4099dd
Encoding settings                        : cabac=1 / ref=3 / deblock=1:-2:-2 / analyse=0x3:0x133 / me=umh / subme=8 / psy=1 / psy_rd=1.00:0.00 / mixed_ref=1 / me_range=16 / chroma_me=1 / trellis=2 / 8x8dct=1 / cqm=0 / deadzone=21,11 / fast_pskip=0 / chroma_qp_offset=-2 / threads=16 / lookahead_threads=2 / sliced_threads=0 / nr=0 / decimate=1 / interlaced=0 / bluray_compat=0 / constrained_intra=0 / bframes=3 / b_pyramid=2 / b_adapt=2 / b_bias=0 / direct=3 / weightb=1 / open_gop=0 / weightp=2 / keyint=240 / keyint_min=22 / scenecut=40 / intra_refresh=0 / rc_lookahead=60 / rc=2pass / mbtree=1 / bitrate=1600 / ratetol=1.0 / qcomp=0.60 / qpmin=0 / qpmax=69 / qpstep=4 / cplxblur=20.0 / qblur=0.5 / vbv_maxrate=17500 / vbv_bufsize=17500 / nal_hrd=none / filler=0 / ip_ratio=1.40 / aq=1:1.00
Language                                 : Italian
Default                                  : Yes
Forced                                   : No

Audio
ID                                       : 2
Format                                   : AC-3
Format/Info                              : Audio Coding 3
Commercial name                          : Dolby Digital
Muxing mode                              : Header stripping
Codec ID                                 : A_AC3
Duration                                 : 2 h 22 min
Bit rate mode                            : Constant
Bit rate                                 : 384 kb/s
Channel(s)                               : 6 channels
Channel layout                           : L R C LFE Ls Rs
Sampling rate                            : 48.0 kHz
Frame rate                               : 31.250 FPS (1536 SPF)
Compression mode                         : Lossy
Stream size                              : 392 MiB (19%)
Title                                    : AC3 ITA
Language                                 : Italian
Service kind                             : Complete Main
Default                                  : Yes
Forced                                   : No

Text
ID                                       : 3
Format                                   : UTF-8
Codec ID                                 : S_TEXT/UTF8
Codec ID/Info                            : UTF-8 Plain Text
Title                                    : FORCED ITA
Language                                 : Italian
Default                                  : Yes
Forced                                   : No



Screenshots         
Categoria Movies - Films
Dimensione 1.98 GB
Data 01/06/2022
Uploader 👤 h20
Nodi
Distributori: 1, Ricettori: 0 = 1 Nodi, Down = 0 volte
Report Torrent
Similar torrents
Name Added Size Seeders Leechers
Animali.Fantastici.E.Dove.Trovarli.2016.BDRip.XviD.Ita.Eng.5.1.Ba79-iCV-MIRCrew.torrent 31/01/2018 2.13 GB 488 15
Animali Fantastici 3 I Segreti Di Silente (2022) 1080p H264 WEB-DL iTA ENG AC3 5.1 Sub Ita Eng - iDN_CreW.torrent 08/06/2022 3.33 GB 348 45
Il Mondo Degli Animali - 7 - Balene e Delfini 15/09/2007 687.82 MB 215 69
Il Mondo Degli Animali - 13 - Macachi E Castori 06/11/2008 698.32 MB 207 83
Il Mondo Degli Animali - 10 - Formiche e api 10/05/2008 687.54 MB 192 83
Il Mondo Degli Animali - 2 - Tigri e Serpenti 02/07/2007 699.07 MB 191 68
Animali fantastici e dove trovarli (2016) 17/11/2017 6.23 GB 185 89
Animali.Fantastici.E.Dove.Trovarli.2016.iTALiAN.BDRip.XviD-CYBER[MT].avi.torrent 16/03/2018 1.37 GB 184 13
Animali.Fantastici.E.Dove.Trovarli.2016.iTALiAN.MD.720p.HDTS.x264-GENiSYS.mkv.torrent 07/02/2018 3.15 GB 181 14
Ulisse - Animali o compagni di vita 25/05/2014 1.62 GB 157 44
Aggiorna
Announce URLSeedersLeechersDownloaded
http://anidex.moe:6969/announce000
Ultimo aggiornamento 06/07/2022 05:07:23 (06/07/2022 05:07:23)


Utente
Commento:
smile1.gif wink.gif grin.gif tongue.gif sad.gif cry.gif noexpression.gif confused.gif ohmy.gif cool1.gif angel.gif sleep.gif angry.gif smile2.gif laugh.gif cool2.gif
Altre Emoticon
   



Supportaci
Supporta lo sviluppo e manutenzione del portale ~ Support portal development and maintenance ~ ilCorSaRoBlu.org Say Thank You!
 
Donazioni questo mese: 0%

Obbiettivo: €120
Fino a: 31/07/22
Ultimi Donatori
Donatore: Data:
V.I.P.Kaus💗20/06/2022
V.I.P.saurorex💗15/06/2022
V.I.P.Angelo99💗12/06/2022
V.I.P.Gumercindo💗11/06/2022
V.I.P.nelson💗03/06/2022


click

I nostri partner
            

Site Disclaimer

www.ilCorSaRoBlu.org - Site Disclaimer

Coloro che hanno realizzato il sito (www.ilCorSaRoBlu.org) si dissociano dalle eventuali violazioni della legge n.633 del 22 aprile 1941 e successive modifiche sul diritto d' autore, specie nell'art. 172. Il materiale pubblicato è di proprietà dei rispettivi autori, i quali, tacitamente o non, hanno dato il consenso ai realizzatori per la pubblicazione sul sito. Di conseguenza, tutto il materiale pubblicato, per il fatto stesso che dev'essere utilizzato per soli scopi di studio e valutazione, non può essere definito illegale ma di libero utilizzo, quindi non viola gli art.615, 615 quater e 623 del Codice Penale; anche i Provider e gli ISP che ospitano tale materiale sono da ritenersi liberi da qualsiasi procedimento giudiziario. Poiché alcuni contenuti e informazioni all'interno della rete Web possono in vario modo violare le leggi vigenti, i realizzatori del sito avvertono l'utente che il download di alcuni file può costituire violazione di diritti d'autore e copyright. Gli autori non si assumono alcuna responsabilità a riguardo ed avvertono l'utente che l'uso che egli fa di tutto ciò che é contenuto su questo sito ricade sotto la sua completa ed esclusiva responsabilità. Scaricando uno qualunque dei files presenti sul sito l'utente concorda in un periodo di valutazione di 24 ore e prima che questo scada dovrà cancellare il file ovunque l'avrà copiato. Queste pagine non sono a scopo di lucro e i files possono essere scaricati solo per la valutazione e lo studio degli stessi.
Entrando in questo sito tutte le avvertenze riportate nel presente testo si ritengono condivise ed accettate in ogni punto, senza alcuna remora.
Chiunque non concordi con quanto suscritto è pregato di chiudere il portale ora e non visualizzare le pagine del presente sito.
Questo server non ospita nessun file ma solo i relativi torrent / metadati.

Per maggiori informazioni si prega di consultare Condizioni Generali di Uso del Sito e il relativo Removal.
Per ogni Domanda/Dubbio/Curiosità/Info si prega di contattare Il Supporto.
Buona Permanenza sul Portale www.ilCorSaRoBlu.org


Premium Membership