click

Sondaggi
Cosa ne pensi del nuovo Server del ilCorSaRoBlu.org













Dettagli Torrent
All
AllAllAllAll

All
Nome All Is Lost - Tutto è perduto (2013).ita.eng.Multisub.MIRCrew.torrent
Torrent All Is Lost - Tutto è perduto (2013).ita.eng.Multisub.MIRCrew.torrent
Info Hash 22b75bfdad9d3cead02d436b10fe35e69fde7d29
Who thanked
Streaming Thor Player (Web)
(Alpha Version)
Rango Premium o V.I.P.
Richiesto,
per questa funzione!

Diventa Premium,
V.I.P. subito!
Donate

Play With Thor Player
Image
Descrizione



All Is Lost - Tutto è perduto (2013) [XviD - Italian English Ac3 5.1- Sub Ita Eng] MIRCrew


NO FOUND ONLY ORIGINAL RELEASE


All Is Lost - Tutto è perduto

(2013)


 
Titolo originale    All Is Lost
Lingua originale    inglese
Paese di produzione    USA
Anno    2013
Durata    100 min
Colore    colore
Audio    sonoro
Rapporto    2.35:1
Genere    drammatico
Regia    J.C. Chandor
Sceneggiatura    J.C. Chandor
Produttore    Neal Dodson, Anna Gerb, Justin Nappi, Teddy Schwarzman
Fotografia    Frank G. DeMarco
Montaggio    Pete Beaudreau
Musiche    Alex Ebert
Scenografia    Jess Gonchor


   Robert Redford: L'uomo

Doppiatori italiani

   Luigi La Monica: L'uomo


Disperso nell'Oceano Indiano ("a 1.700 miglia marine dallo stretto di Sumatra";), il protagonista anonimo Robert Redford si rivela: "Mi dispiace. So che adesso questo significa ben poco, ma mi dispiace. Ci ho provato. Sarete tutti d'accordo che ci ho provato. A essere vero, a essere forte, a essere gentile, ad amare, a essere giusto. Ma non lo sono stato. Tutto è perduto."....
After a collision with a shipping container at sea, a resourceful sailor finds himself, despite all efforts to the contrary, staring his mortality in the face......
FILMOGRAFIE

Robert Redford  
Spoiler (hover to show)
General
Complete name                            : All Is Lost - Tutto è perduto (2013).ita.eng.Multisub.MIRCrewAll Is Lost - Tutto è perduto (2013).ita.eng.Multisub.MIRCrew.avi
Format                                   : AVI
Format/Info                              : Audio Video Interleave
File size                                : 1.71 GiB
Duration                                 : 1h 41mn
Overall bit rate                         : 2 408 Kbps

Video
ID                                       : 0
Format                                   : MPEG-4 Visual
Format profile                           : Advanced Simple@L4
Format settings, BVOP                    : 2
Format settings, QPel                    : No
Format settings, GMC                     : No warppoints
Format settings, Matrix                  : Default (H.263)
Codec ID                                 : DIVX
Codec ID/Info                            : Project Mayo
Codec ID/Hint                            : DivX 4
Duration                                 : 1h 41mn
Bit rate                                 : 1 622 Kbps
Width                                    : 720 pixels
Height                                   : 304 pixels
Display aspect ratio                     : 2.35:1
Frame rate                               : 25.000 fps
Color space                              : YUV
Chroma subsampling                       : 4:2:0
Bit depth                                : 8 bits
Scan type                                : Progressive
Compression mode                         : Lossy
Bits/(Pixel*Frame)                       : 0.296
Stream size                              : 1.15 GiB (67%)
Writing library                          : XviD 64

Audio #1
ID                                       : 1
Format                                   : AC-3
Format/Info                              : Audio Coding 3
Mode extension                           : CM (complete main)
Codec ID                                 : 2000
Duration                                 : 1h 41mn
Source duration                          : 1h 41mn
Bit rate mode                            : Constant
Bit rate                                 : 384 Kbps
Channel(s)                               : 6 channels
Channel positions                        : Front: L C R, Side: L R, LFE
Sampling rate                            : 48.0 KHz
Bit depth                                : 16 bits
Compression mode                         : Lossy
Stream size                              : 279 MiB (16%)
Alignment                                : Aligned on interleaves
Interleave, duration                     : 32 ms (0.80 video frame)

Audio #2
ID                                       : 2
Format                                   : AC-3
Format/Info                              : Audio Coding 3
Mode extension                           : CM (complete main)
Codec ID                                 : 2000
Duration                                 : 1h 41mn
Source duration                          : 1h 41mn
Bit rate mode                            : Constant
Bit rate                                 : 384 Kbps
Channel(s)                               : 6 channels
Channel positions                        : Front: L C R, Side: L R, LFE
Sampling rate                            : 48.0 KHz
Bit depth                                : 16 bits
Compression mode                         : Lossy
Stream size                              : 279 MiB (16%)
Alignment                                : Aligned on interleaves
Interleave, duration                     : 32 ms (0.80 video frame)


All Is Lost - Tutto è perduto (2013) [XviD - Italian English Ac3 5.1- Sub Ita Eng] MIRCrew


« Ultima modifica: 30 Gennaio 2020, 12:09:37 da bifrazio »

Connesso
 

Screenshots         
Categoria Other
Dimensione 1.71 GB
Data 27/12/2020
Uploader Inviato come anonimo
Nodi
Distributori: 8, Ricettori: 9 = 17 Nodi, Down = 0 volte
Report Torrent
Similar torrents
Name Added Size Seeders Leechers
All Is Lost - Tutto è Perduto (2013) 14/02/2015 4.85 GB 86 69
All Is Lost - Tutto è perduto (2013) 06/02/2015 1.37 GB 52 85
All.Is.Lost.Tutto.E.Perduto.2013.iTA.ENG.AC3.Bluray.1080p.x264-DSS.torrent 03/03/2018 1.89 GB 20 15
All is lost - Tutto e perduto 2013.torrent 31/03/2018 8.31 GB 13 3
All.Is.Lost.Tutto.E.Perduto.2013.iTALiAN.AC3.5.1.MD.BDRip.x264-REV[MT].mkv.torrent 14/02/2018 1.48 GB 8 12
Aggiorna
Ultimo aggiornamento 27/01/2021 17:38:15 (27/01/2021 17:38:15)


Utente
Commento:
smile1.gif wink.gif grin.gif tongue.gif sad.gif cry.gif noexpression.gif confused.gif ohmy.gif cool1.gif angel.gif sleep.gif angry.gif smile2.gif laugh.gif cool2.gif
Altre Emoticon
   



Supportaci
Supporta lo sviluppo e manutenzione del portale ~ Support portal development and maintenance ~ ilCorSaRoBlu.org Say Thank You!
 
Donazioni questo mese: 179%

Obbiettivo: €100
Fino a: 31/01/21
Ultimi Donatori
Donatore: Data:
V.I.P.inno1973💗26/01/2021
V.I.P.tulbin73💗25/01/2021
M***ia Bar***i*i23/01/2021
V.I.P.doctoreffe💗22/01/2021
V.I.P.BigSteven💗22/01/2021

click

I nostri partner
            

Site Disclaimer

www.ilCorSaRoBlu.org - Site Disclaimer

Coloro che hanno realizzato il sito (www.ilCorSaRoBlu.org) si dissociano dalle eventuali violazioni della legge n.633 del 22 aprile 1941 e successive modifiche sul diritto d' autore, specie nell'art. 172. Il materiale pubblicato è di proprietà dei rispettivi autori, i quali, tacitamente o non, hanno dato il consenso ai realizzatori per la pubblicazione sul sito. Di conseguenza, tutto il materiale pubblicato, per il fatto stesso che dev'essere utilizzato per soli scopi di studio e valutazione, non può essere definito illegale ma di libero utilizzo, quindi non viola gli art.615, 615 quater e 623 del Codice Penale; anche i Provider e gli ISP che ospitano tale materiale sono da ritenersi liberi da qualsiasi procedimento giudiziario. Poiché alcuni contenuti e informazioni all'interno della rete Web possono in vario modo violare le leggi vigenti, i realizzatori del sito avvertono l'utente che il download di alcuni file può costituire violazione di diritti d'autore e copyright. Gli autori non si assumono alcuna responsabilità a riguardo ed avvertono l'utente che l'uso che egli fa di tutto ciò che é contenuto su questo sito ricade sotto la sua completa ed esclusiva responsabilità. Scaricando uno qualunque dei files presenti sul sito l'utente concorda in un periodo di valutazione di 24 ore e prima che questo scada dovrà cancellare il file ovunque l'avrà copiato. Queste pagine non sono a scopo di lucro e i files possono essere scaricati solo per la valutazione e lo studio degli stessi.
Entrando in questo sito tutte le avvertenze riportate nel presente testo si ritengono condivise ed accettate in ogni punto, senza alcuna remora.
Chiunque non concordi con quanto suscritto è pregato di chiudere il portale ora e non visualizzare le pagine del presente sito.
Questo server non ospita nessun file ma solo i relativi torrent / metadati.

Per maggiori informazioni si prega di consultare Condizioni Generali di Uso del Sito e il relativo Removal.
Per ogni Domanda/Dubbio/Curiosità/Info si prega di contattare Il Supporto.
Buona Permanenza sul Portale www.ilCorSaRoBlu.org


Premium Membership